Dream Theater – Breaking The Fourth Wall




Artist: Dream Theater
Year: 2014
Genre: Metal
Notes: Discogs
Add. Notes:
Cover incl.: Yes
Encoder: FLAC
Bitrate: ~1000 kBit/s (44.1 kHz/16 Bit/s)
Log & Cue incl.: Yes
Size: 1625 MB
Password: “slam” (without ” “)


All Downloads/Hosters are compatible

Download 1
KatFile.com
Turbobit.net
Rapidgator.net
Turbobit.net
Download 2
KatFile.com
Turbobit.net
Rapidgator.net
Turbobit.net

Tracklist:

Act 1
CD1-1  - The Enemy Inside  - 6:18
CD1-2  - The Shattered Fortress  - 
12:45
CD1-3  - On The Backs Of Angels  - 
8:48
CD1-4  - The Looking Glass  - 4:46
CD1-5  - Trial Of Tears  - 15:23
CD1-6  - Enigma Machine  - 8:21
CD1-7  - Along For The Ride  - 4:53
CD1-8  - Breaking All Illusions  - 
12:29

Act 2
CD2-1  - The Mirror  - 6:47
CD2-2  - Lie  - 7:56
CD2-3  - Lifting Shadows Off A 
Dream  - 6:27
CD2-4  - Scarred  - 11:41
CD2-5  - Space Dye Vest  - 7:48
Illumination Theory  - (19:25)
CD2-6.1  - i. Paradoxe De La Lumière 
Noire  - 
CD2-6.2  - ii. Live, Die, Kill  - 
CD2-6.3  - iii. The Embracing Circle  - 
CD2-6.4  - iv. The Pursuit Of Truth  - 
CD2-6.5  - v. Surrender, Trust & 
Passion  - 

Encore
CD3-1  - Scene Two: I Overture 
1928  - 3:41
CD3-2  - Scene Two: II Strange Deja 
Vu  - 5:09
CD3-3  - Scene Seven : I The Dance 
Of Eternity  - 6:16
CD3-4  - Scene Nine: Finally Free  - 
9:56

EAC-Log, CUE-Sheed & NFO:

Click to open spoiler
Exact Audio Copy V1.0 beta 4 from 7. December 2014

EAC extraction logfile from 21. January 2015, 22:08

Dream Theater / Breaking The Fourth Wall (Live From Boston Opera House) CD 1

Used drive : LITE-ON DVDRW LH-20A1L Adapter: 1 ID: 0

Read mode : Secure
Utilize accurate stream : Yes
Defeat audio cache : Yes
Make use of C2 pointers : No

Read offset correction : 6
Overread into Lead-In and Lead-Out : No
Fill up missing offset samples with silence : Yes
Delete leading and trailing silent blocks : No
Null samples used in CRC calculations : Yes
Used interface : Installed external ASPI interface

Used output format : Internal WAV Routines
Sample format : 44.100 Hz; 16 Bit; Stereo

TOC of the extracted CD

Track | Start | Length | Start sector | End sector
———————————————————
1 | 0:00.00 | 6:17.52 | 0 | 28326
2 | 6:17.52 | 12:44.41 | 28327 | 85667
3 | 19:02.18 | 8:48.24 | 85668 | 125291
4 | 27:50.42 | 4:46.05 | 125292 | 146746
5 | 32:36.47 | 15:22.43 | 146747 | 215939
6 | 47:59.15 | 8:20.73 | 215940 | 253512
7 | 56:20.13 | 4:52.69 | 253513 | 275481
8 | 61:13.07 | 12:28.59 | 275482 | 331640

Range status and errors

Selected range

Filename Z:\data\hexonut\Seeding\Dream Theater\Live Albums\2014-Breaking The Fourth Wall – Live From The Boston Opera House\Breaking The Fourth Wall CD 1.wav

Peak level 100.0 %
Extraction speed 10.1 X
Range quality 100.0 %
Test CRC 291863AF
Copy CRC 291863AF
Copy OK

No errors occurred

AccurateRip summary

Track 1 accurately ripped (confidence 1) [5CF61B95] (AR v2)
Track 2 accurately ripped (confidence 1) [D88407B2] (AR v2)
Track 3 accurately ripped (confidence 1) [46FD74A0] (AR v2)
Track 4 accurately ripped (confidence 1) [CEB97321] (AR v2)
Track 5 accurately ripped (confidence 1) [EDFA5222] (AR v2)
Track 6 accurately ripped (confidence 1) [A31AA5B2] (AR v2)
Track 7 accurately ripped (confidence 1) [B6B022DB] (AR v2)
Track 8 accurately ripped (confidence 1) [CF10E3EF] (AR v2)

All tracks accurately ripped

End of status report

==== Log checksum CF69DBE22D6DEE9D0B1461D70A6D09A58224FF8B8A91BD8C559E0AE55376CAC9 ====

Exact Audio Copy V1.0 beta 4 from 7. December 2014

EAC extraction logfile from 22. January 2015, 20:46

Dream Theater / Breaking The Fourth Wall (Live From Boston Opera House) CD 2

Used drive : LITE-ON DVDRW LH-20A1L Adapter: 6 ID: 0

Read mode : Secure
Utilize accurate stream : Yes
Defeat audio cache : Yes
Make use of C2 pointers : No

Read offset correction : 6
Overread into Lead-In and Lead-Out : No
Fill up missing offset samples with silence : Yes
Delete leading and trailing silent blocks : No
Null samples used in CRC calculations : Yes
Used interface : Installed external ASPI interface

Used output format : Internal WAV Routines
Sample format : 44.100 Hz; 16 Bit; Stereo

TOC of the extracted CD

Track | Start | Length | Start sector | End sector
———————————————————
1 | 0:00.00 | 6:46.49 | 0 | 30498
2 | 6:46.49 | 7:56.23 | 30499 | 66221
3 | 14:42.72 | 6:27.26 | 66222 | 95272
4 | 21:10.23 | 11:41.00 | 95273 | 147847
5 | 32:51.23 | 7:48.26 | 147848 | 182973
6 | 40:39.49 | 19:25.35 | 182974 | 270383

Range status and errors

Selected range

Filename Z:\data\hexonut\Seeding\Dream Theater\Live Albums\2014-Breaking The Fourth Wall – Live From The Boston Opera House\Breaking The Fourth Wall CD 2.wav

Peak level 98.6 %
Extraction speed 9.3 X
Range quality 100.0 %
Test CRC AFCB6CD5
Copy CRC AFCB6CD5
Copy OK

No errors occurred

AccurateRip summary

Track 1 accurately ripped (confidence 1) [E744A49A] (AR v2)
Track 2 accurately ripped (confidence 1) [3586ABAC] (AR v2)
Track 3 accurately ripped (confidence 1) [6D7EAC21] (AR v2)
Track 4 accurately ripped (confidence 1) [23394333] (AR v2)
Track 5 accurately ripped (confidence 1) [92EA2A85] (AR v2)
Track 6 accurately ripped (confidence 1) [66676514] (AR v2)

All tracks accurately ripped

End of status report

==== Log checksum BD5C0EEAAFD61B36D8D8DC48533B917CF1ABCDA3695522175BB3A50F73174540 ====

Exact Audio Copy V1.0 beta 4 from 7. December 2014

EAC extraction logfile from 22. January 2015, 12:28

Dream Theater / Breaking The Fourth Wall (Live From Boston Opera House) CD 3

Used drive : PLEXTOR CD-R PX-240A Adapter: 0 ID: 0

Read mode : Secure
Utilize accurate stream : Yes
Defeat audio cache : Yes
Make use of C2 pointers : No

Read offset correction : 6
Overread into Lead-In and Lead-Out : No
Fill up missing offset samples with silence : Yes
Delete leading and trailing silent blocks : No
Null samples used in CRC calculations : Yes
Used interface : Installed external ASPI interface

Used output format : Internal WAV Routines
Sample format : 44.100 Hz; 16 Bit; Stereo

TOC of the extracted CD

Track | Start | Length | Start sector | End sector
———————————————————
1 | 0:00.00 | 3:41.02 | 0 | 16576
2 | 3:41.02 | 5:08.69 | 16577 | 39745
3 | 8:49.71 | 6:16.32 | 39746 | 67977
4 | 15:06.28 | 9:56.15 | 67978 | 112692

Range status and errors

Selected range

Filename Z:\data\hexonut\Seeding\Dream Theater\Live Albums\2014-Breaking The Fourth Wall – Live From The Boston Opera House\Breaking The Fourth Wall CD 3.wav

Peak level 98.2 %
Extraction speed 7.3 X
Range quality 99.9 %
Test CRC 84CD3EFF
Copy CRC 84CD3EFF
Copy OK

No errors occurred

AccurateRip summary

Track 1 accurately ripped (confidence 2) [8C049C2A] (AR v2)
Track 2 accurately ripped (confidence 2) [D5F5F9C3] (AR v2)
Track 3 accurately ripped (confidence 2) [54A43983] (AR v2)
Track 4 accurately ripped (confidence 2) [F6B1A636] (AR v2)

All tracks accurately ripped

End of status report

==== Log checksum 0498BF316F5195F37391FA5510DF5E000BAD24CA8B781A2EFD4387C8B39BCB6D ====

REM GENRE “Progressive Metal”
REM DATE 2014
REM DISCID 7E114508
REM COMMENT “ExactAudioCopy v1.0b4”
CATALOG 0016861753641
PERFORMER “Dream Theater”
TITLE “Breaking The Fourth Wall (Live From Boston Opera House) CD 1”
FILE “Breaking The Fourth Wall CD 1.flac” WAVE
TRACK 01 AUDIO
TITLE “The Enemy Inside”
PERFORMER “Dream Theater”
ISRC NLA321400354
INDEX 01 00:00:00
TRACK 02 AUDIO
TITLE “The Shattered Fortress”
PERFORMER “Dream Theater”
ISRC NLA321400355
INDEX 01 06:17:52
TRACK 03 AUDIO
TITLE “On The Backs Of Angels”
PERFORMER “Dream Theater”
ISRC NLA321400356
INDEX 01 19:02:18
TRACK 04 AUDIO
TITLE “The Looking Glass”
PERFORMER “Dream Theater”
ISRC NLA321400357
INDEX 01 27:50:42
TRACK 05 AUDIO
TITLE “Trial Of Tears”
PERFORMER “Dream Theater”
ISRC NLA321400357
INDEX 01 32:36:47
TRACK 06 AUDIO
TITLE “Enigma Machine”
PERFORMER “Dream Theater”
ISRC NLA321400359
INDEX 01 47:59:15
TRACK 07 AUDIO
TITLE “Along For The Ride”
PERFORMER “Dream Theater”
ISRC NLA321400360
INDEX 01 56:20:13
TRACK 08 AUDIO
TITLE “Breaking All Illusions”
PERFORMER “Dream Theater”
ISRC NLA321400361
INDEX 01 61:13:07

REM GENRE “Progressive Metal”
REM DATE 2014
REM DISCID 4D0E1506
REM COMMENT “ExactAudioCopy v1.0b4”
CATALOG 0016861753641
PERFORMER “Dream Theater”
TITLE “Breaking The Fourth Wall (Live From Boston Opera House) CD 2”
FILE “Breaking The Fourth Wall CD 2.flac” WAVE
TRACK 01 AUDIO
TITLE “The Mirror”
PERFORMER “Dream Theater”
ISRC NLA321400362
INDEX 01 00:00:00
TRACK 02 AUDIO
TITLE “Lie”
PERFORMER “Dream Theater”
ISRC NLA321400363
INDEX 01 06:46:49
TRACK 03 AUDIO
TITLE “Lifting Shadows Off A Dream”
PERFORMER “Dream Theater”
ISRC NLA321400364
INDEX 01 14:42:72
TRACK 04 AUDIO
TITLE “Scarred”
PERFORMER “Dream Theater”
ISRC NLA321400365
INDEX 01 21:10:23
TRACK 05 AUDIO
TITLE “Space-Dye Vest”
PERFORMER “Dream Theater”
ISRC NLA321400366
INDEX 01 32:51:23
TRACK 06 AUDIO
TITLE “Illumination Theory”
PERFORMER “Dream Theater”
ISRC NLA321400367
INDEX 01 40:39:49

REM GENRE “Progressive Metal”
REM DATE 2014
REM DISCID 2305DE04
REM COMMENT “ExactAudioCopy v1.0b4”
CATALOG 0016861753641
PERFORMER “Dream Theater”
TITLE “Breaking The Fourth Wall (Live From Boston Opera House) CD 3”
FILE “Breaking The Fourth Wall CD 3.flac” WAVE
TRACK 01 AUDIO
TITLE “Overture 1928”
PERFORMER “Dream Theater”
ISRC NLA321400368
INDEX 01 00:00:00
TRACK 02 AUDIO
TITLE “Strange Deja Vu”
PERFORMER “Dream Theater”
ISRC NLA321400369
INDEX 01 03:41:02
TRACK 03 AUDIO
TITLE “The Dance Of Eternity”
PERFORMER “Dream Theater”
ISRC NLA321400370
INDEX 01 08:49:71
TRACK 04 AUDIO
TITLE “Finally Free ”
PERFORMER “Dream Theater”
ISRC NLA321400371
INDEX 01 15:06:28


Leave a Reply

Your email address will not be published. Required fields are marked *

Enter the text from the image below
 

This site uses Akismet to reduce spam. Learn how your comment data is processed.