Dream Theater – Black Clouds & Silver Linings (Deluxe Edition)




Artist: Dream Theater
Year: 2009
Genre: Metal
Notes: Discogs
Add. Notes: Deluxe Edition
Cover incl.: Yes
Encoder: FLAC
Bitrate: ~1000 kBit/s (44.1 kHz/16 Bit/s)
Log & Cue incl.: Yes
Size: 3133 MB
Password: “slam” (without ” “)


All Downloads/Hosters are compatible

Download 1
KatFile.com
Turbobit.net
FileFactory.com
Rapidgator.net
Download 2
KatFile.com
Turbobit.net
FileFactory.com
Rapidgator.net

Tracklist:

Black Clouds & Silver Linings
1-1 - A Nightmare To Remember - 
16:10
1-2 - A Rite Of Passage - 8:35
1-3 - Wither - 5:25
1-4 - The Shattered Fortress - 12:49
1-5 - The Best Of Times - 13:07
1-6 - The Count Of Tuscany - 19:16

Uncovered 2008/2009
2-1 - Stargazer - 8:10
2-2 - Tenement Funster / Flick Of 
The Wrist / Lily Of The 
Valley - 8:17
2-3 - Odyssey - 7:59
2-4 - Take Your Fingers From My 
Hair - 8:18
2-5 - Larks Tongues In Aspic Pt. 2 - 
6:30
2-6 - To Tame A Land - 7:15

Black Clouds & Silver Linings 
(Instrumental Mixes)
3-1 - A Nightmare To Remember - 
16:10
3-2 - A Rite Of Passage - 8:35
3-3 - Wither - 5:25
3-4 - The Shattered Fortress - 12:49
3-5 - The Best Of Times - 13:07
3-6 - The Count Of Tuscany - 19:16

EAC-Log, CUE-Sheed & NFO:

Click to open spoiler
Exact Audio Copy V1.0 beta 1 from 15. November 2010

EAC extraction logfile from 23. December 2010, 9:54

Dream Theater / Black Clouds & Silver Linings

Used drive : LITE-ON DVDRW LH-20A1L Adapter: 4 ID: 0

Read mode : Secure
Utilize accurate stream : Yes
Defeat audio cache : Yes
Make use of C2 pointers : No

Read offset correction : 6
Overread into Lead-In and Lead-Out : No
Fill up missing offset samples with silence : Yes
Delete leading and trailing silent blocks : No
Null samples used in CRC calculations : Yes
Used interface : Installed external ASPI interface

Used output format : Internal WAV Routines
Sample format : 44.100 Hz; 16 Bit; Stereo

TOC of the extracted CD

Track | Start | Length | Start sector | End sector
———————————————————
1 | 0:00.00 | 16:10.43 | 0 | 72792
2 | 16:10.43 | 8:36.14 | 72793 | 111506
3 | 24:46.57 | 5:25.47 | 111507 | 135928
4 | 30:12.29 | 12:49.25 | 135929 | 193628
5 | 43:01.54 | 13:09.15 | 193629 | 252818
6 | 56:10.69 | 19:16.20 | 252819 | 339538

Range status and errors

Selected range

Filename Z:\data\mp3\Seeding\Dream Theater\Albums\2009-Black Clouds & Silver Linings\blackclouds1.wav

Peak level 100.0 %
Extraction speed 1.9 X
Range quality 100.0 %
Test CRC 812DEC3F
Copy CRC 812DEC3F
Copy OK

No errors occurred

AccurateRip summary

Track 1 accurately ripped (confidence 6) [6ACF079C]
Track 2 accurately ripped (confidence 6) [39A2D191]
Track 3 accurately ripped (confidence 6) [7F23D915]
Track 4 accurately ripped (confidence 6) [1E86CFCB]
Track 5 accurately ripped (confidence 6) [D309C196]
Track 6 accurately ripped (confidence 6) [BB640E9E]

All tracks accurately ripped

End of status report

Exact Audio Copy V1.0 beta 1 from 15. November 2010

EAC extraction logfile from 23. December 2010, 9:49

Dream Theater / Black Clouds & Silver Linings (Disc 2)

Used drive : PLEXTOR CD-R PX-240A Adapter: 1 ID: 1

Read mode : Secure
Utilize accurate stream : Yes
Defeat audio cache : Yes
Make use of C2 pointers : No

Read offset correction : 6
Overread into Lead-In and Lead-Out : No
Fill up missing offset samples with silence : Yes
Delete leading and trailing silent blocks : No
Null samples used in CRC calculations : Yes
Used interface : Installed external ASPI interface

Used output format : Internal WAV Routines
Sample format : 44.100 Hz; 16 Bit; Stereo

TOC of the extracted CD

Track | Start | Length | Start sector | End sector
———————————————————
1 | 0:00.00 | 8:11.01 | 0 | 36825
2 | 8:11.01 | 8:18.19 | 36826 | 74194
3 | 16:29.20 | 8:00.26 | 74195 | 110220
4 | 24:29.46 | 8:18.56 | 110221 | 147626
5 | 32:48.27 | 6:32.26 | 147627 | 177052
6 | 39:20.53 | 7:15.64 | 177053 | 209741

Range status and errors

Selected range

Filename Z:\data\mp3\Seeding\Dream Theater\Albums\2009-Black Clouds & Silver Linings\blackclouds2.wav

Peak level 99.9 %
Extraction speed 1.3 X
Range quality 100.0 %
Test CRC 6BB26DF7
Copy CRC 6BB26DF7
Copy OK

No errors occurred

AccurateRip summary

Track 1 accurately ripped (confidence 2) [9E9395EE]
Track 2 accurately ripped (confidence 2) [7A3CD0B5]
Track 3 accurately ripped (confidence 2) [683277E6]
Track 4 accurately ripped (confidence 2) [2B8FDA3F]
Track 5 accurately ripped (confidence 2) [3FA92BB9]
Track 6 accurately ripped (confidence 2) [C1605F79]

All tracks accurately ripped

End of status report

Exact Audio Copy V1.0 beta 1 from 15. November 2010

EAC extraction logfile from 23. December 2010, 10:07

Dream Theater / Black Clouds & Silver Linings, Disc 3 (Instrumental Mixes)

Used drive : PLEXTOR CD-R PX-240A Adapter: 1 ID: 1

Read mode : Secure
Utilize accurate stream : Yes
Defeat audio cache : Yes
Make use of C2 pointers : No

Read offset correction : 6
Overread into Lead-In and Lead-Out : No
Fill up missing offset samples with silence : Yes
Delete leading and trailing silent blocks : No
Null samples used in CRC calculations : Yes
Used interface : Installed external ASPI interface

Used output format : Internal WAV Routines
Sample format : 44.100 Hz; 16 Bit; Stereo

TOC of the extracted CD

Track | Start | Length | Start sector | End sector
———————————————————
1 | 0:00.00 | 15:39.06 | 0 | 70430
2 | 15:39.06 | 8:36.13 | 70431 | 109143
3 | 24:15.19 | 5:28.38 | 109144 | 133781
4 | 29:43.57 | 12:47.08 | 133782 | 191314
5 | 42:30.65 | 13:20.35 | 191315 | 251349
6 | 55:51.25 | 18:47.67 | 251350 | 335941

Range status and errors

Selected range

Filename Z:\data\mp3\Seeding\Dream Theater\Albums\2009-Black Clouds & Silver Linings\blackclouds3.wav

Peak level 100.0 %
Extraction speed 2.5 X
Range quality 99.9 %
Test CRC AF3F83F4
Copy CRC AF3F83F4
Copy OK

No errors occurred

AccurateRip summary

Track 1 accurately ripped (confidence 2) [C65991CB]
Track 2 accurately ripped (confidence 2) [485126AD]
Track 3 accurately ripped (confidence 2) [3C31DC0E]
Track 4 accurately ripped (confidence 2) [CE7F12DB]
Track 5 accurately ripped (confidence 2) [31DD6E5F]
Track 6 accurately ripped (confidence 2) [D438F432]

All tracks accurately ripped

End of status report

REM GENRE “Progressive Metal”
REM DATE 2009
REM DISCID 5811AF06
REM COMMENT “ExactAudioCopy v1.0b1”
CATALOG 0016861788322
PERFORMER “Dream Theater”
TITLE “Black Clouds & Silver Linings CD 1”
FILE “blackclouds1.flac” WAVE
TRACK 01 AUDIO
TITLE “A Nightmare To Remember”
PERFORMER “Dream Theater”
ISRC NLA320988722
FLAGS DCP
INDEX 01 00:00:00
TRACK 02 AUDIO
TITLE “A Rite Of Passage”
PERFORMER “Dream Theater”
ISRC NLA320988723
FLAGS DCP
INDEX 00 16:10:06
INDEX 01 16:10:43
TRACK 03 AUDIO
TITLE “Wither”
PERFORMER “Dream Theater”
ISRC NLA320988724
FLAGS DCP
INDEX 00 24:46:32
INDEX 01 24:46:57
TRACK 04 AUDIO
TITLE “The Shattered Fortress”
PERFORMER “Dream Theater”
ISRC NLA320988725
FLAGS DCP
INDEX 01 30:12:29
TRACK 05 AUDIO
TITLE “The Best Of Times”
PERFORMER “Dream Theater”
ISRC NLA320988726
FLAGS DCP
INDEX 01 43:01:54
TRACK 06 AUDIO
TITLE “The Count Of Tuscany”
PERFORMER “Dream Theater”
ISRC NLA320988727
FLAGS DCP
INDEX 00 56:09:44
INDEX 01 56:10:69

REM GENRE “Progressive Metal”
REM DATE 2009
REM DISCID 500AEC06
REM COMMENT “ExactAudioCopy v1.0b1”
CATALOG 0016861788353
PERFORMER “Dream Theater”
TITLE “Black Clouds & Silver Linings CD 2 – Covers”
FILE “blackclouds2.flac” WAVE
TRACK 01 AUDIO
TITLE “Stargazer”
PERFORMER “Dream Theater”
ISRC NLA320988728
INDEX 01 00:00:00
TRACK 02 AUDIO
TITLE “Flick Of The Wrist/Lily Of The Valley”
PERFORMER “Dream Theater”
ISRC NLA320988763
INDEX 00 08:10:17
INDEX 01 08:11:01
TRACK 03 AUDIO
TITLE “Odyssey”
PERFORMER “Dream Theater”
ISRC NLA320988730
INDEX 00 16:28:26
INDEX 01 16:29:20
TRACK 04 AUDIO
TITLE “Take Your Fingers from My Hair”
PERFORMER “Dream Theater”
ISRC NLA320988731
INDEX 00 24:28:52
INDEX 01 24:29:46
TRACK 05 AUDIO
TITLE “Larks Tongues in Aspic Pt.2”
PERFORMER “Dream Theater”
ISRC NLA320988732
INDEX 00 32:47:62
INDEX 01 32:48:27
TRACK 06 AUDIO
TITLE “To Tame a Land”
PERFORMER “Dream Theater”
ISRC NLA320886599
INDEX 00 39:19:10
INDEX 01 39:20:53

REM GENRE “Progressive Metal”
REM DATE 2009
REM DISCID 52117F06
REM COMMENT “ExactAudioCopy v1.0b1”
CATALOG 0016861788353
PERFORMER “Dream Theater”
TITLE “Black Clouds & Silver Linings CD 2 – Instrumental Mixes”
FILE “blackclouds3.flac” WAVE
TRACK 01 AUDIO
TITLE “A Nightmare to Remember”
PERFORMER “Dream Theater”
ISRC NLA320988733
INDEX 01 00:00:00
TRACK 02 AUDIO
TITLE “A Rite of Passage”
PERFORMER “Dream Theater”
ISRC NLA320988734
INDEX 00 15:37:68
INDEX 01 15:39:06
TRACK 03 AUDIO
TITLE “Wither”
PERFORMER “Dream Theater”
ISRC NLA320988735
INDEX 00 24:14:32
INDEX 01 24:15:19
TRACK 04 AUDIO
TITLE “The Shattered Fortress”
PERFORMER “Dream Theater”
ISRC NLA320988736
INDEX 00 29:43:02
INDEX 01 29:43:57
TRACK 05 AUDIO
TITLE “The Best of Times”
PERFORMER “Dream Theater”
ISRC NLA320988737
INDEX 00 42:30:20
INDEX 01 42:30:65
TRACK 06 AUDIO
TITLE “The Count of Tuscany”
PERFORMER “Dream Theater”
ISRC NLA320988738
INDEX 00 55:50:28
INDEX 01 55:51:25


Leave a Reply

Your email address will not be published. Required fields are marked *

This site uses Akismet to reduce spam. Learn how your comment data is processed.