Dream Theater – Awake




[Total: 0    Average: 0/5]

Artist: Dream Theater
Year: 1994
Genre: Metal
Notes: Discogs
Add. Notes:
Cover incl.: Yes
Encoder: FLAC
Bitrate: ~1000 kBit/s (44.1 kHz/16 Bit/s)
Log & Cue incl.: Yes
Size: 553,55 MB
Password: “slam” (without ” “)


All Downloads/Hosters are compatible

Download 1
Share-online.biz
KatFile.com
Rapidgator.net
Download 2
Share-online.biz
KatFile.com
Rapidgator.net

Tracklist:

1 - 6:00 - 5:31
2 - Caught In A Web - 5:28
3 - Innocence Faded - 5:43
A Mind Beside Itself 
4 - Erotomania - 6:45
5 - Voices - 9:53
6 - The Silent Man - 3:48
7 - The Mirror - 6:45
8 - Lie - 6:34
9 - Lifting Shadows Off A Dream - 6:05
10 - Scarred - 11:00
11 - Space-Dye Vest - 7:29

EAC-Log, CUE-Sheed & NFO:

Click to open spoiler
Exact Audio Copy V1.0 beta 1 from 15. November 2010

EAC extraction logfile from 19. December 2010, 18:39

Dream Theater / Awake

Used drive : PLEXTOR CD-R PX-240A Adapter: 1 ID: 1

Read mode : Secure
Utilize accurate stream : Yes
Defeat audio cache : Yes
Make use of C2 pointers : No

Read offset correction : 6
Overread into Lead-In and Lead-Out : No
Fill up missing offset samples with silence : Yes
Delete leading and trailing silent blocks : No
Null samples used in CRC calculations : Yes
Used interface : Installed external ASPI interface

Used output format : Internal WAV Routines
Sample format : 44.100 Hz; 16 Bit; Stereo

TOC of the extracted CD

Track | Start | Length | Start sector | End sector
———————————————————
1 | 0:00.00 | 5:31.27 | 0 | 24851
2 | 5:31.27 | 5:28.23 | 24852 | 49474
3 | 10:59.50 | 5:42.40 | 49475 | 75164
4 | 16:42.15 | 6:44.17 | 75165 | 105481
5 | 23:26.32 | 9:53.63 | 105482 | 150019
6 | 33:20.20 | 3:47.67 | 150020 | 167111
7 | 37:08.12 | 6:45.25 | 167112 | 197511
8 | 43:53.37 | 6:33.65 | 197512 | 227051
9 | 50:27.27 | 6:05.10 | 227052 | 254436
10 | 56:32.37 | 10:59.13 | 254437 | 303874
11 | 67:31.50 | 7:29.02 | 303875 | 337551

Range status and errors

Selected range

Filename Z:\data\mp3\Seeding\Dream Theater\Albums\1994-Awake\awake.wav

Peak level 100.0 %
Extraction speed 0.9 X
Range quality 100.0 %
Test CRC 45D0C1C1
Copy CRC 45D0C1C1
Copy OK

No errors occurred

AccurateRip summary

Track 1 accurately ripped (confidence 28) [DB33F7D2]
Track 2 accurately ripped (confidence 28) [ACB0FD26]
Track 3 accurately ripped (confidence 28) [D9A1D484]
Track 4 accurately ripped (confidence 27) [795962F2]
Track 5 accurately ripped (confidence 26) [79A08A50]
Track 6 accurately ripped (confidence 26) [07CD8DB0]
Track 7 accurately ripped (confidence 26) [369AD367]
Track 8 accurately ripped (confidence 27) [841F2474]
Track 9 accurately ripped (confidence 27) [21093052]
Track 10 accurately ripped (confidence 27) [055F49C1]
Track 11 accurately ripped (confidence 25) [AEE083F7]

All tracks accurately ripped

End of status report

REM GENRE “Progressive Metal”
REM DATE 1994
REM DISCID 7211940B
REM COMMENT “ExactAudioCopy v1.0b1”
CATALOG 0000000000000
PERFORMER “Dream Theater”
TITLE “Awake”
FILE “awake.flac” WAVE
TRACK 01 AUDIO
TITLE “6:00”
PERFORMER “Dream Theater”
INDEX 01 00:00:00
TRACK 02 AUDIO
TITLE “Caught In A Web”
PERFORMER “Dream Theater”
INDEX 01 05:31:27
TRACK 03 AUDIO
TITLE “Innocence Faded”
PERFORMER “Dream Theater”
INDEX 01 10:59:50
TRACK 04 AUDIO
TITLE “Erotomania (Instrumental Version)”
PERFORMER “Dream Theater”
INDEX 00 16:41:60
INDEX 01 16:42:15
TRACK 05 AUDIO
TITLE “Voices”
PERFORMER “Dream Theater”
INDEX 01 23:26:32
TRACK 06 AUDIO
TITLE “The Silent Man”
PERFORMER “Dream Theater”
INDEX 01 33:20:20
TRACK 07 AUDIO
TITLE “The Mirror”
PERFORMER “Dream Theater”
INDEX 00 37:06:61
INDEX 01 37:08:12
TRACK 08 AUDIO
TITLE “Lie”
PERFORMER “Dream Theater”
INDEX 01 43:53:37
TRACK 09 AUDIO
TITLE “Lifting Shadows Off A Dream”
PERFORMER “Dream Theater”
INDEX 01 50:27:27
TRACK 10 AUDIO
TITLE “Scarred”
PERFORMER “Dream Theater”
INDEX 01 56:32:37
TRACK 11 AUDIO
TITLE “Space-Dye Vest”
PERFORMER “Dream Theater”
INDEX 00 67:30:30
INDEX 01 67:31:50


Spread the Download

Leave a Reply

Your email address will not be published. Required fields are marked *

Enter the text from the image below
 

This site uses Akismet to reduce spam. Learn how your comment data is processed.