Dream Theater – Awake (Japanese Edition)




Artist: Dream Theater
Year: 1994
Genre: Metal
Notes: Discogs
Add. Notes: Japanese Edition
Cover incl.: Yes
Encoder: FLAC
Bitrate: ~1000 kBit/s (44.1 kHz/16 Bit/s)
Log & Cue incl.: Yes
Size: 593,25 MB
Password: “slam” (without ” “)


All Downloads/Hosters are compatible

Download 1
Turbobit.net
KatFile.com
Rapidgator.net
Download 2
Turbobit.net
KatFile.com
Rapidgator.net

Tracklist:

1-1 - 6:00 - 5:31
1-2 - Caught In A Web - 5:28
1-3 - Innocence Faded - 5:43
1-4 - I. Erotomania - 6:45
1-5 - II. Voices - 9:53
1-6 - III. The Silent Man - 3:48
1-7 - The Mirror - 6:45
1-8 - Lie - 6:34
1-9 - Lifting Shadows Off A Dream - 6:05
1-10 - Scarred - 11:00
1-11 - Space-Dye Vest - 7:29
2-1 - Eve - 5:05

EAC-Log, CUE-Sheed & NFO:

Click to open spoiler
Exact Audio Copy V1.0 beta 1 from 15. November 2010

EAC extraction logfile from 19. December 2010, 22:27

Dream Theater / Awake

Used drive : LITE-ON DVDRW LH-20A1L Adapter: 4 ID: 0

Read mode : Secure
Utilize accurate stream : Yes
Defeat audio cache : Yes
Make use of C2 pointers : No

Read offset correction : 6
Overread into Lead-In and Lead-Out : No
Fill up missing offset samples with silence : Yes
Delete leading and trailing silent blocks : No
Null samples used in CRC calculations : Yes
Used interface : Installed external ASPI interface

Used output format : Internal WAV Routines
Sample format : 44.100 Hz; 16 Bit; Stereo

TOC of the extracted CD

Track | Start | Length | Start sector | End sector
———————————————————
1 | 0:00.32 | 5:31.70 | 32 | 24926
2 | 5:32.27 | 5:28.20 | 24927 | 49546
3 | 11:00.47 | 5:42.40 | 49547 | 75236
4 | 16:43.12 | 6:44.45 | 75237 | 105581
5 | 23:27.57 | 9:53.35 | 105582 | 150091
6 | 33:21.17 | 3:47.70 | 150092 | 167186
7 | 37:09.12 | 6:45.48 | 167187 | 197609
8 | 43:54.60 | 6:33.40 | 197610 | 227124
9 | 50:28.25 | 6:05.10 | 227125 | 254509
10 | 56:33.35 | 10:59.15 | 254510 | 303949
11 | 67:32.50 | 7:29.40 | 303950 | 337664

Range status and errors

Selected range

Filename Z:\data\mp3\Seeding\Dream Theater\Albums\1994-Awake Japan\awakejpn1.wav

Peak level 100.0 %
Extraction speed 0.4 X
Range quality 100.0 %
Test CRC 0E95606E
Copy CRC 0E95606E
Copy OK

No errors occurred

AccurateRip summary

Track 1 accurately ripped (confidence 15) [C37F77F0]
Track 2 accurately ripped (confidence 15) [A9092C94]
Track 3 accurately ripped (confidence 15) [9B14E84D]
Track 4 accurately ripped (confidence 15) [A5176087]
Track 5 accurately ripped (confidence 15) [592CC838]
Track 6 accurately ripped (confidence 15) [651DF205]
Track 7 accurately ripped (confidence 15) [5B0FD219]
Track 8 accurately ripped (confidence 15) [6D98D04C]
Track 9 accurately ripped (confidence 15) [21EA1555]
Track 10 accurately ripped (confidence 15) [F5689B86]
Track 11 accurately ripped (confidence 15) [F04C7AAF]

All tracks accurately ripped

End of status report

Exact Audio Copy V1.0 beta 1 from 15. November 2010

EAC extraction logfile from 20. December 2010, 14:16

Dream Theater / Awake (Bonus Disc)

Used drive : LITE-ON DVDRW LH-20A1L Adapter: 4 ID: 0

Read mode : Secure
Utilize accurate stream : Yes
Defeat audio cache : Yes
Make use of C2 pointers : No

Read offset correction : 6
Overread into Lead-In and Lead-Out : No
Fill up missing offset samples with silence : Yes
Delete leading and trailing silent blocks : No
Null samples used in CRC calculations : Yes
Used interface : Installed external ASPI interface

Used output format : Internal WAV Routines
Sample format : 44.100 Hz; 16 Bit; Stereo

TOC of the extracted CD

Track | Start | Length | Start sector | End sector
———————————————————
1 | 0:00.32 | 5:04.55 | 32 | 22886

Range status and errors

Selected range

Filename Z:\data\mp3\Seeding\Dream Theater\Albums\1994-Awake Japan\awakejpn2.wav

Peak level 99.8 %
Extraction speed 1.6 X
Range quality 99.9 %
Test CRC 0D3B20EA
Copy CRC 0D3B20EA
Copy OK

No errors occurred

AccurateRip summary

Track 1 accurately ripped (confidence 2) [E8DD76B0]

All tracks accurately ripped

End of status report

REM GENRE “Progressive Metal”
REM DATE 1994
REM DISCID 7311960B
REM COMMENT “ExactAudioCopy v1.0b1”
CATALOG 4988029075048
PERFORMER “Dream Theater”
TITLE “Awake [Japan] CD 1”
FILE “awakejpn1.flac” WAVE
TRACK 01 AUDIO
TITLE “6:00”
PERFORMER “Dream Theater”
ISRC 000000000000
INDEX 00 00:00:00
INDEX 01 00:00:32
TRACK 02 AUDIO
TITLE “Caught In A Web”
PERFORMER “Dream Theater”
ISRC 000000000000
INDEX 01 05:32:27
TRACK 03 AUDIO
TITLE “Innocence Faded”
PERFORMER “Dream Theater”
ISRC 000000000000
INDEX 01 11:00:47
TRACK 04 AUDIO
TITLE “Erotomania”
PERFORMER “Dream Theater”
ISRC 000000000000
INDEX 01 16:43:12
TRACK 05 AUDIO
TITLE “Voices”
PERFORMER “Dream Theater”
ISRC 000000000000
INDEX 01 23:27:57
TRACK 06 AUDIO
TITLE “The Silent Man”
PERFORMER “Dream Theater”
ISRC 000000000000
INDEX 01 33:21:17
TRACK 07 AUDIO
TITLE “The Mirror”
PERFORMER “Dream Theater”
ISRC 000000000000
INDEX 00 37:08:22
INDEX 01 37:09:12
TRACK 08 AUDIO
TITLE “Lie”
PERFORMER “Dream Theater”
ISRC 000000000000
INDEX 01 43:54:60
TRACK 09 AUDIO
TITLE “Lifting Shadows Off A Dream”
PERFORMER “Dream Theater”
ISRC 000000000000
INDEX 01 50:28:25
TRACK 10 AUDIO
TITLE “Scarred”
PERFORMER “Dream Theater”
ISRC 000000000000
INDEX 01 56:33:35
TRACK 11 AUDIO
TITLE “Space Dye Vest”
PERFORMER “Dream Theater”
ISRC 000000000000
INDEX 00 67:32:07
INDEX 01 67:32:50

REM GENRE “Progressive Metal”
REM DATE 1994
REM DISCID 02013101
REM COMMENT “ExactAudioCopy v1.0b1”
CATALOG 4988029075048
PERFORMER “Dream Theater”
TITLE “Awake [Japan] CD 2”
FILE “awakejpn2.flac” WAVE
TRACK 01 AUDIO
TITLE “Eve”
PERFORMER “Dream Theater”
ISRC 000000000000
INDEX 00 00:00:00
INDEX 01 00:00:32


Leave a Reply

Your email address will not be published. Required fields are marked *

This site uses Akismet to reduce spam. Learn how your comment data is processed.