Dream Theater – Another Day In Tokyo (Japan Broadcast 1995)




[Total: 0    Average: 0/5]

Artist: Dream Theater
Year: 2016
Genre: Metal
Notes: Discogs
Add. Notes:
Cover incl.: Yes
Encoder: FLAC
Bitrate: ~800 kBit/s (44.1 kHz/16 Bit/s)
Log & Cue incl.: Yes
Size: 647 MB
Password: “slam” (without ” “)


All Downloads/Hosters are compatible

Download 1
Share-online.biz
KatFile.com
Rapidgator.net
Mexa.sh
Download 2
Share-online.biz
KatFile.com
Rapidgator.net
Mexa.sh

Tracklist:

1-01 - Pull Me Under - 8:55
1-02 - 6:00 - 6:03
1-03 - Take the Time - 14:14
1-04 - Caught In a Web/Drum Solo - 
9:22
1-05 - Lifting Shadows Off a Dream - 
13:51
2-01 - A Crack In the Mirror/The 
Mirror - 14:30
2-02 - Happy Birthday John Myung - 
1:16
2-03 - Another Day - 4:57
2-04 - A Man Beside Itself: I. 
Erotomania - 6:44
2-05 - A Man Beside Itself: II. 
Voices - 12:01
2-06 - A Man Beside Itself: III. The 
Silent Man - 4:18
2-07 - Metropolis, Part 1: The Miracle 
And The Sleeper - 
10:24

EAC-Log, CUE-Sheed & NFO:

Click to open spoiler
Exact Audio Copy V1.1 from 23. June 2015

EAC extraction logfile from 2. August 2017, 15:30

Dream Theater / Another Day In Tokyo CD1

Used drive : PLEXTOR CD-R PX-240A Adapter: 0 ID: 0

Read mode : Secure
Utilize accurate stream : Yes
Defeat audio cache : Yes
Make use of C2 pointers : No

Read offset correction : 6
Overread into Lead-In and Lead-Out : No
Fill up missing offset samples with silence : Yes
Delete leading and trailing silent blocks : No
Null samples used in CRC calculations : Yes
Used interface : Installed external ASPI interface

Used output format : Internal WAV Routines
Sample format : 44.100 Hz; 16 Bit; Stereo

TOC of the extracted CD

Track | Start | Length | Start sector | End sector
———————————————————
1 | 0:00.00 | 8:55.21 | 0 | 40145
2 | 8:55.21 | 6:02.36 | 40146 | 67331
3 | 14:57.57 | 14:13.57 | 67332 | 131363
4 | 29:11.39 | 9:22.03 | 131364 | 173516
5 | 38:33.42 | 13:52.25 | 173517 | 235941

Range status and errors

Selected range

Filename Z:\data\hexonut\Seeding\Dream Theater\Bootlegs\2016-Another Day In Tokyo\Another Day In Tokyo CD1.wav

Peak level 99.6 %
Extraction speed 7.9 X
Range quality 100.0 %
Test CRC C641E052
Copy CRC C641E052
Copy OK

No errors occurred

AccurateRip summary

Track 1 accurately ripped (confidence 3) [F17F3CFE] (AR v2)
Track 2 accurately ripped (confidence 3) [18C1B2BE] (AR v2)
Track 3 accurately ripped (confidence 3) [F57A9A2B] (AR v2)
Track 4 accurately ripped (confidence 3) [7A0B1779] (AR v2)
Track 5 accurately ripped (confidence 2) [E7B0898F] (AR v2)

All tracks accurately ripped

End of status report

==== Log checksum 5829616CAFA7879C1B2765DA6CF2315E034103348305091C495C00990CE8F859 ====

Exact Audio Copy V1.1 from 23. June 2015

EAC extraction logfile from 2. August 2017, 15:45

Dream Theater / Another Day In Tokyo CD2

Used drive : PLEXTOR CD-R PX-240A Adapter: 0 ID: 0

Read mode : Secure
Utilize accurate stream : Yes
Defeat audio cache : Yes
Make use of C2 pointers : No

Read offset correction : 6
Overread into Lead-In and Lead-Out : No
Fill up missing offset samples with silence : Yes
Delete leading and trailing silent blocks : No
Null samples used in CRC calculations : Yes
Used interface : Installed external ASPI interface

Used output format : Internal WAV Routines
Sample format : 44.100 Hz; 16 Bit; Stereo

TOC of the extracted CD

Track | Start | Length | Start sector | End sector
———————————————————
1 | 0:00.00 | 14:31.07 | 0 | 65331
2 | 14:31.07 | 1:15.62 | 65332 | 71018
3 | 15:46.69 | 4:57.28 | 71019 | 93321
4 | 20:44.22 | 6:43.45 | 93322 | 123591
5 | 27:27.67 | 12:00.69 | 123592 | 177660
6 | 39:28.61 | 4:17.48 | 177661 | 196983
7 | 43:46.34 | 10:25.26 | 196984 | 243884

Range status and errors

Selected range

Filename Z:\data\hexonut\Seeding\Dream Theater\Bootlegs\2016-Another Day In Tokyo\Another Day In Tokyo CD2.wav

Peak level 89.4 %
Extraction speed 8.8 X
Range quality 100.0 %
Test CRC 080DCD35
Copy CRC 080DCD35
Copy OK

No errors occurred

AccurateRip summary

Track 1 accurately ripped (confidence 3) [6AC02B28] (AR v2)
Track 2 accurately ripped (confidence 3) [3DEB6A66] (AR v2)
Track 3 accurately ripped (confidence 3) [4D761825] (AR v2)
Track 4 accurately ripped (confidence 3) [3FA3B834] (AR v2)
Track 5 accurately ripped (confidence 3) [FDF0E916] (AR v2)
Track 6 accurately ripped (confidence 3) [21041BCA] (AR v2)
Track 7 accurately ripped (confidence 2) [0F446F13] (AR v2)

All tracks accurately ripped

End of status report

==== Log checksum 7F61293B7419F05E7A91FC7E0852C6F0D151F30FFE0EB6981216FD8F9133FD9D ====

REM GENRE Metal
REM DATE 1995
REM DISCID 460C4905
REM COMMENT “ExactAudioCopy v1.1”
PERFORMER “Dream Theater”
TITLE “Another Day In Tokyo CD1”
FILE “Another Day In Tokyo CD1.flac” WAVE
TRACK 01 AUDIO
TITLE “Pull Me Under”
PERFORMER “Dream Theater”
INDEX 01 00:00:00
TRACK 02 AUDIO
TITLE “6:00”
PERFORMER “Dream Theater”
INDEX 01 08:55:21
TRACK 03 AUDIO
TITLE “Take The Time”
PERFORMER “Dream Theater”
INDEX 01 14:57:57
TRACK 04 AUDIO
TITLE “Caught In A Web – Drum Solo”
PERFORMER “Dream Theater”
INDEX 01 29:11:39
TRACK 05 AUDIO
TITLE “Liftimg Shadows Off A Dream”
PERFORMER “Dream Theater”
INDEX 01 38:33:42

REM GENRE Metal
REM DATE 1995
REM DISCID 680CB307
REM COMMENT “ExactAudioCopy v1.1”
PERFORMER “Dream Theater”
TITLE “Another Day In Tokyo CD2”
FILE “Another Day In Tokyo CD2.flac” WAVE
TRACK 01 AUDIO
TITLE “A Crack In The Mirror – The Mirror”
PERFORMER “Dream Theater”
INDEX 01 00:00:00
TRACK 02 AUDIO
TITLE “Happy Birthday John Myung”
PERFORMER “Dream Theater”
INDEX 01 14:31:07
TRACK 03 AUDIO
TITLE “Another Day”
PERFORMER “Dream Theater”
INDEX 01 15:46:69
TRACK 04 AUDIO
TITLE “A Mind Beside Itself: Erotomania”
PERFORMER “Dream Theater”
INDEX 01 20:44:22
TRACK 05 AUDIO
TITLE “A Mind Beside Itself: Voice”
PERFORMER “Dream Theater”
INDEX 01 27:27:67
TRACK 06 AUDIO
TITLE “A Mind Beside Itself: The Silent Man”
PERFORMER “Dream Theater”
INDEX 01 39:28:61
TRACK 07 AUDIO
TITLE “Metropolis, Part 1: The Miracle And The Sleeper”
PERFORMER “Dream Theater”
INDEX 01 43:46:34


Spread the Download

Leave a Reply

Your email address will not be published. Required fields are marked *

Enter the text from the image below
 

This site uses Akismet to reduce spam. Learn how your comment data is processed.