Dream Theater – A Dramatic Turn Of Events (Special Edition)




Artist: Dream Theater
Year: 2011
Genre: Metal
Notes: Discogs
Add. Notes: Special Edition
Cover incl.: Yes
Encoder: FLAC
Bitrate: ~900 kBit/s (44.1 kHz/16 Bit/s)
Log & Cue incl.: Yes
Size: 1138,75 MB
Password: “slam” (without ” “)


All Downloads/Hosters are compatible

Download 1
Turbobit.net
Rapidgator.net
KatFile.com
UploadRar.com
Download 2
Turbobit.net
Rapidgator.net
KatFile.com
UploadRar.com

Tracklist:

CD1: A Dramatic Turn Of Events - 77:04
1 - On The Backs Of Angels - 8:42
2 - Build Me Up, Break Me Down - 6:59
3 - Lost Not Forgotten - 10:11
4 - This Is The Life - 6:57
5 - Bridges In The Sky - 11:01
6 - Outcry - 11:24
7 - Far From Heaven - 3:56
8 - Breaking All Illusions - 12:25
9 - Beneath The Surface - 5:26

CD2: A Dramatic Turn Of Events Bonus CD - 77:04
1 - On The Backs Of Angels (Instrumental) - 8:42
2 - Build Me Up, Break Me Down (Instrumental) - 6:59
3 - Lost Not Forgotten (Instrumental) - 10:11
4 - This Is The Life (Instrumental) - 6:57
5 - Bridges In The Sky (Instrumental) - 11:01
6 - Outcry (Instrumental) - 11:24
7 - Far From Heaven (Instrumental) - 3:56
8 - Breaking All Illusions (Instrumental) - 12:25
9 - Beneath The Surface (Instrumental) - 5:26

EAC-Log, CUE-Sheed & NFO:

Click to open spoiler
Exact Audio Copy V1.0 beta 3 from 29. August 2011

EAC extraction logfile from 23. May 2013, 23:42

Dream Theater / A Dramatic Turn Of Events

Used drive : LITE-ON DVDRW LH-20A1L Adapter: 7 ID: 0

Read mode : Secure
Utilize accurate stream : Yes
Defeat audio cache : Yes
Make use of C2 pointers : No

Read offset correction : 6
Overread into Lead-In and Lead-Out : No
Fill up missing offset samples with silence : Yes
Delete leading and trailing silent blocks : No
Null samples used in CRC calculations : Yes
Used interface : Installed external ASPI interface

Used output format : Internal WAV Routines
Sample format : 44.100 Hz; 16 Bit; Stereo

TOC of the extracted CD

Track | Start | Length | Start sector | End sector
———————————————————
1 | 0:00.00 | 8:42.39 | 0 | 39188
2 | 8:42.39 | 6:59.23 | 39189 | 70636
3 | 15:41.62 | 10:11.54 | 70637 | 116515
4 | 25:53.41 | 6:57.35 | 116516 | 147825
5 | 32:51.01 | 11:01.32 | 147826 | 197432
6 | 43:52.33 | 11:24.15 | 197433 | 248747
7 | 55:16.48 | 3:56.07 | 248748 | 266454
8 | 59:12.55 | 12:25.41 | 266455 | 322370
9 | 71:38.21 | 5:26.32 | 322371 | 346852

Range status and errors

Selected range

Filename Z:\data\Seeding\Dream Theater\Albums\2011-A Dramatic Turn Of Events\A Dramatic Turn Of Events (CD 1).wav

Peak level 100.0 %
Extraction speed 10.2 X
Range quality 100.0 %
Test CRC AE683ACF
Copy CRC AE683ACF
Copy OK

No errors occurred

AccurateRip summary

Track 1 accurately ripped (confidence 11) [AF953629] (AR v2)
Track 2 accurately ripped (confidence 11) [7683F8CD] (AR v2)
Track 3 accurately ripped (confidence 11) [67CB9FB9] (AR v2)
Track 4 accurately ripped (confidence 11) [7426861C] (AR v2)
Track 5 accurately ripped (confidence 11) [35EC0662] (AR v2)
Track 6 accurately ripped (confidence 11) [58AEAF97] (AR v2)
Track 7 accurately ripped (confidence 11) [C5CDDC65] (AR v2)
Track 8 accurately ripped (confidence 11) [C429FBE7] (AR v2)
Track 9 accurately ripped (confidence 11) [E6D6CEFD] (AR v2)

All tracks accurately ripped

End of status report

==== Log checksum 35A6A2E24E9093C5D29088D33F81253C5CB083B8EEBE9F3729EE1E98E6494D4B ====

Exact Audio Copy V1.0 beta 3 from 29. August 2011

EAC extraction logfile from 23. May 2013, 23:41

Dream Theater / A Dramatic Turn Of Events Instrumental Version

Used drive : PLEXTOR CD-R PX-240A Adapter: 1 ID: 0

Read mode : Secure
Utilize accurate stream : Yes
Defeat audio cache : Yes
Make use of C2 pointers : No

Read offset correction : 6
Overread into Lead-In and Lead-Out : No
Fill up missing offset samples with silence : Yes
Delete leading and trailing silent blocks : No
Null samples used in CRC calculations : Yes
Used interface : Installed external ASPI interface

Used output format : Internal WAV Routines
Sample format : 44.100 Hz; 16 Bit; Stereo

TOC of the extracted CD

Track | Start | Length | Start sector | End sector
———————————————————
1 | 0:00.00 | 8:42.39 | 0 | 39188
2 | 8:42.39 | 6:59.23 | 39189 | 70636
3 | 15:41.62 | 10:11.54 | 70637 | 116515
4 | 25:53.41 | 6:57.35 | 116516 | 147825
5 | 32:51.01 | 11:01.32 | 147826 | 197432
6 | 43:52.33 | 11:24.15 | 197433 | 248747
7 | 55:16.48 | 3:56.07 | 248748 | 266454
8 | 59:12.55 | 12:25.41 | 266455 | 322370
9 | 71:38.21 | 5:26.32 | 322371 | 346852

Range status and errors

Selected range

Filename Z:\data\Seeding\Dream Theater\Albums\2011-A Dramatic Turn Of Events\A Dramatic Turn Of Events CD 2 Instrumental .wav

Peak level 100.0 %
Extraction speed 10.5 X
Range quality 100.0 %
Test CRC 764EE027
Copy CRC 764EE027
Copy OK

No errors occurred

AccurateRip summary

Track 1 cannot be verified as accurate (confidence 52) [A281B26E], AccurateRip returned [157BA199] (AR v2)
Track 2 cannot be verified as accurate (confidence 52) [FF2A7F2E], AccurateRip returned [54B0EBA2] (AR v2)
Track 3 cannot be verified as accurate (confidence 52) [98A6DDC9], AccurateRip returned [9BC3EDED] (AR v2)
Track 4 cannot be verified as accurate (confidence 53) [AD56B2E7], AccurateRip returned [FD3E7BC8] (AR v2)
Track 5 cannot be verified as accurate (confidence 52) [3AA2263E], AccurateRip returned [94E7D46E] (AR v2)
Track 6 cannot be verified as accurate (confidence 52) [F18E4487], AccurateRip returned [E0B343EE] (AR v2)
Track 7 cannot be verified as accurate (confidence 53) [08365C7E], AccurateRip returned [CF8F65C9] (AR v2)
Track 8 cannot be verified as accurate (confidence 52) [09158E53], AccurateRip returned [C55E102C] (AR v2)
Track 9 cannot be verified as accurate (confidence 53) [5474048F], AccurateRip returned [F0849104] (AR v2)

No tracks could be verified as accurate
You may have a different pressing from the one(s) in the database

End of status report

==== Log checksum DA3BC8B27A0BE7CA26F22AF01CFF1B07C92733DB4E92852EBBBD0E2AB7830A04 ====

REM GENRE “Progressive Metal”
REM DATE 2011
REM DISCID 77121009
REM COMMENT “ExactAudioCopy v1.0b3”
CATALOG 0016861776527
PERFORMER “Dream Theater”
TITLE “A Dramatic Turn Of Events”
FILE “A Dramatic Turn Of Events (CD 1).wav” WAVE
TRACK 01 AUDIO
TITLE “On the Backs of Angels”
PERFORMER “Dream Theater”
ISRC NLA321191156
FLAGS DCP
INDEX 01 00:00:00
TRACK 02 AUDIO
TITLE “Build Me Up, Break Me Down”
PERFORMER “Dream Theater”
ISRC NLA321191156
FLAGS DCP
INDEX 01 08:42:39
TRACK 03 AUDIO
TITLE “Lost Not Forgotten”
PERFORMER “Dream Theater”
ISRC NLA321191328
FLAGS DCP
INDEX 01 15:41:62
TRACK 04 AUDIO
TITLE “This is the Life”
PERFORMER “Dream Theater”
ISRC NLA321191159
FLAGS DCP
INDEX 01 25:53:41
TRACK 05 AUDIO
TITLE “Bridges in the Sky”
PERFORMER “Dream Theater”
ISRC NLA321191159
FLAGS DCP
INDEX 01 32:51:01
TRACK 06 AUDIO
TITLE “Outcry”
PERFORMER “Dream Theater”
ISRC NLA321191160
FLAGS DCP
INDEX 01 43:52:33
TRACK 07 AUDIO
TITLE “Far From Heaven”
PERFORMER “Dream Theater”
ISRC NLA321191162
FLAGS DCP
INDEX 01 55:16:48
TRACK 08 AUDIO
TITLE “Breaking All Illusions”
PERFORMER “Dream Theater”
ISRC NLA321191163
FLAGS DCP
INDEX 01 59:12:55
TRACK 09 AUDIO
TITLE “Beneath the Surface”
PERFORMER “Dream Theater”
ISRC NLA321191164
FLAGS DCP
INDEX 01 71:38:21

REM GENRE “Progressive Metal”
REM DATE 2011
REM DISCID 77121009
REM COMMENT “ExactAudioCopy v1.0b3”
CATALOG 0016861776541
PERFORMER “Dream Theater”
TITLE “A Dramatic Turn Of Events Instrumental Version”
FILE “A Dramatic Turn Of Events (CD 2 Instrumental).wav” WAVE
TRACK 01 AUDIO
TITLE “On The Backs Of Angels Instrumental”
PERFORMER “Dream Theater”
ISRC NLA321191463
INDEX 01 00:00:00
TRACK 02 AUDIO
TITLE “Build Me Up, Break Me Down Instrumental”
PERFORMER “Dream Theater”
ISRC NLA321191464
INDEX 01 08:42:39
TRACK 03 AUDIO
TITLE “Lost Not Forgotten Instrumental”
PERFORMER “Dream Theater”
ISRC NLA321191465
INDEX 01 15:41:62
TRACK 04 AUDIO
TITLE “This Is The Life Instrumental”
PERFORMER “Dream Theater”
ISRC NLA321191466
INDEX 01 25:53:41
TRACK 05 AUDIO
TITLE “Bridges In The Sky Instrumental”
PERFORMER “Dream Theater”
ISRC NLA321191467
INDEX 01 32:51:01
TRACK 06 AUDIO
TITLE “Outcry Instrumental”
PERFORMER “Dream Theater”
ISRC NLA321191468
INDEX 01 43:52:33
TRACK 07 AUDIO
TITLE “Far From Heaven Instrumental”
PERFORMER “Dream Theater”
ISRC NLA321191469
INDEX 01 55:16:48
TRACK 08 AUDIO
TITLE “Breaking All Illusions Instrumental”
PERFORMER “Dream Theater”
ISRC NLA321191470
INDEX 01 59:12:55
TRACK 09 AUDIO
TITLE “Beneath The Surface Instrumental”
PERFORMER “Dream Theater”
ISRC NLA321191471
INDEX 01 71:38:21


Leave a Reply

Your email address will not be published. Required fields are marked *

This site uses Akismet to reduce spam. Learn how your comment data is processed.