Dödelhaie – Mitternacht




Artist: Dödelhaie
Year: 1997
Genre: Punk
Notes: Discogs
Add. Notes:
Cover incl.: Yes
Encoder: FLAC
Bitrate: ~1000 kBit/s (44.1 kHz/16 Bit/s)
Log & Cue incl.: Yes
Size: 347,3 MB
Password: “slam” (without ” “)


All Downloads/Hosters are compatible

Download 1
KatFile.com
Turbobit.net
FileFactory.com
Rapidgator.net
Download 2
KatFile.com
Turbobit.net
FileFactory.com
Rapidgator.net

Tracklist:

Intro
Die Reise
In den Schatten
Der Schlaf
Telefon
Duisburg-Rostock-Moskau
Der Deibel
Der Chirurg
Schlachtfeld Romantik
Dunkelheit
Weiter geh’n
Stark
Endlich Gott
Hymne
Hundsgemein

EAC-Log, CUE-Sheed & NFO:

Click to open spoiler
Exact Audio Copy V1.3 from 2. September 2016

EAC Auslese-Logdatei vom 8. November 2019, 21:19

Dödelhaie / Mitternacht

Benutztes Laufwerk : ASUS DRW-24D5MT Adapter: 1 ID: 0

Lesemodus : Sicher
Benutze Accurate Stream : Ja
Audio Puffer abgeschaltet : Ja
Benutze C2 Fehlerinformationen : Nein

Leseoffset Korrektur : 6
Überlesen in das Lead-In und Lead-Out : Nein
Fülle fehlende Offsetsample mit Stille auf : Ja
Lösche führende und nachfolgende stille Blöcke : Nein
Null Samples gehen in CRC Berechnungen ein : Ja
Benutzte Schnittstelle : Natürliche Win32 Schnittstelle für Win NT/2000/XP
Pausenbehandlung : Nicht erkannt, daher hinter dem vorigen Track angehängt

Benutztes Ausgabeformat : Benutzerdefinierter Komprimierer
Gewählte Bitrate : 1024 kBit/s
Qualität : Hoch
Füge ID3 Tag hinzu : Nein
Kommandozeilen Komprimierer : C:\Program Files (x86)\Exact Audio Copy\FLAC\FLAC.EXE
Zusätzliche Kommandozeilenoptionen : -8 -V -T “ARTIST=%artist%” -T “TITLE=%title%” -T “ALBUM=%albumtitle%” -T “DATE=%year%” -T “TRACKNUMBER=%tracknr%” -T “GENRE=%genre%” -T “COMMENT=%comment%” -T “BAND=%albuminterpret%” -T “COMPOSER=%composer%” %haslyrics%–tag-from-file=LYRICS=”%lyricsfile%”%haslyrics% -T “DISCNUMBER=%cdnumber%” -T “TOTALDISCS=%totalcds%” -T “TOTALTRACKS=%numtracks%” %hascover%–picture=”%coverfile%”%hascover% %source% -o %dest%

TOC der ausgelesenen CD

Track | Start | Länge | Startsektor | Endsektor
——————————————————-
1 | 0:00.00 | 0:53.30 | 0 | 4004
2 | 0:53.30 | 2:16.53 | 4005 | 14257
3 | 3:10.08 | 3:16.67 | 14258 | 29024
4 | 6:27.00 | 3:31.15 | 29025 | 44864
5 | 9:58.15 | 5:05.45 | 44865 | 67784
6 | 15:03.60 | 3:59.60 | 67785 | 85769
7 | 19:03.45 | 4:27.35 | 85770 | 105829
8 | 23:31.05 | 3:14.55 | 105830 | 120434
9 | 26:45.60 | 3:06.45 | 120435 | 134429
10 | 29:52.30 | 3:31.30 | 134430 | 150284
11 | 33:23.60 | 3:11.20 | 150285 | 164629
12 | 36:35.05 | 2:52.10 | 164630 | 177539
13 | 39:27.15 | 3:41.23 | 177540 | 194137
14 | 43:08.38 | 8:22.74 | 194138 | 231861

Track 1

Dateiname M:\SLAM\www.slam.ws – Lossless Alternative Music\Dödelhaie\Mitternacht\01. Intro.wav

Spitzenpegel 71.1 %
Auslesegeschwindigkeit 0.6 X
Track Qualität 100.0 %
Kopie CRC 75BCA9E2
Track ist nicht enthalten in der AccurateRip Datenbank
Kopie OK

Track 2

Dateiname M:\SLAM\www.slam.ws – Lossless Alternative Music\Dödelhaie\Mitternacht\02. Die Reise.wav

Spitzenpegel 99.8 %
Auslesegeschwindigkeit 0.9 X
Track Qualität 100.0 %
Kopie CRC 803AB743
Track ist nicht enthalten in der AccurateRip Datenbank
Kopie OK

Track 3

Dateiname M:\SLAM\www.slam.ws – Lossless Alternative Music\Dödelhaie\Mitternacht\03. In Den Schatten.wav

Spitzenpegel 99.8 %
Auslesegeschwindigkeit 0.9 X
Track Qualität 99.9 %
Kopie CRC 0ADE64D3
Track ist nicht enthalten in der AccurateRip Datenbank
Kopie OK

Track 4

Dateiname M:\SLAM\www.slam.ws – Lossless Alternative Music\Dödelhaie\Mitternacht\04. Der Schlaf.wav

Spitzenpegel 99.8 %
Auslesegeschwindigkeit 1.2 X
Track Qualität 100.0 %
Kopie CRC F2B81AC8
Track ist nicht enthalten in der AccurateRip Datenbank
Kopie OK

Track 5

Dateiname M:\SLAM\www.slam.ws – Lossless Alternative Music\Dödelhaie\Mitternacht\05. Telefon.wav

Spitzenpegel 99.8 %
Auslesegeschwindigkeit 1.4 X
Track Qualität 100.0 %
Kopie CRC A4B1C0E5
Track ist nicht enthalten in der AccurateRip Datenbank
Kopie OK

Track 6

Dateiname M:\SLAM\www.slam.ws – Lossless Alternative Music\Dödelhaie\Mitternacht\06. Duisburg-Rostock-Moskau.wav

Spitzenpegel 99.8 %
Auslesegeschwindigkeit 1.4 X
Track Qualität 100.0 %
Kopie CRC 64B42F0A
Track ist nicht enthalten in der AccurateRip Datenbank
Kopie OK

Track 7

Dateiname M:\SLAM\www.slam.ws – Lossless Alternative Music\Dödelhaie\Mitternacht\07. Der Deibel.wav

Spitzenpegel 99.8 %
Auslesegeschwindigkeit 1.5 X
Track Qualität 100.0 %
Kopie CRC 36BB67B8
Track ist nicht enthalten in der AccurateRip Datenbank
Kopie OK

Track 8

Dateiname M:\SLAM\www.slam.ws – Lossless Alternative Music\Dödelhaie\Mitternacht\08. Der Chirurg.wav

Spitzenpegel 99.8 %
Auslesegeschwindigkeit 1.5 X
Track Qualität 100.0 %
Kopie CRC C3E69875
Track ist nicht enthalten in der AccurateRip Datenbank
Kopie OK

Track 9

Dateiname M:\SLAM\www.slam.ws – Lossless Alternative Music\Dödelhaie\Mitternacht\09. Schlachtfeld-Romantik.wav

Spitzenpegel 99.8 %
Auslesegeschwindigkeit 1.6 X
Track Qualität 100.0 %
Kopie CRC 60BBA51B
Track ist nicht enthalten in der AccurateRip Datenbank
Kopie OK

Track 10

Dateiname M:\SLAM\www.slam.ws – Lossless Alternative Music\Dödelhaie\Mitternacht\10. Dunkelheit.wav

Spitzenpegel 99.8 %
Auslesegeschwindigkeit 1.7 X
Track Qualität 100.0 %
Kopie CRC 1F676456
Track ist nicht enthalten in der AccurateRip Datenbank
Kopie OK

Track 11

Dateiname M:\SLAM\www.slam.ws – Lossless Alternative Music\Dödelhaie\Mitternacht\11. Weiter Gehn.wav

Spitzenpegel 99.8 %
Auslesegeschwindigkeit 1.7 X
Track Qualität 100.0 %
Kopie CRC 876935DF
Track ist nicht enthalten in der AccurateRip Datenbank
Kopie OK

Track 12

Dateiname M:\SLAM\www.slam.ws – Lossless Alternative Music\Dödelhaie\Mitternacht\12. Stark.wav

Spitzenpegel 99.8 %
Auslesegeschwindigkeit 1.7 X
Track Qualität 100.0 %
Kopie CRC E00E132A
Track ist nicht enthalten in der AccurateRip Datenbank
Kopie OK

Track 13

Dateiname M:\SLAM\www.slam.ws – Lossless Alternative Music\Dödelhaie\Mitternacht\13. Endlich Gott.wav

Spitzenpegel 99.8 %
Auslesegeschwindigkeit 1.9 X
Track Qualität 100.0 %
Kopie CRC E1F35B23
Track ist nicht enthalten in der AccurateRip Datenbank
Kopie OK

Track 14

Dateiname M:\SLAM\www.slam.ws – Lossless Alternative Music\Dödelhaie\Mitternacht\14. Hymne.wav

Spitzenpegel 99.8 %
Auslesegeschwindigkeit 2.0 X
Track Qualität 99.9 %
Kopie CRC 9067B639
Track ist nicht enthalten in der AccurateRip Datenbank
Kopie OK

Keiner der Tracks ist in der AccurateRip Datenbank vorhanden

Keine Fehler aufgetreten

Ende des Statusreports

—- CUETools DB Plugin V2.1.6

[CTDB TOCID: 22UsNdfCPtTO4ECXP8731p2c3bI-] found
Submit result: already submitted
Track | CTDB Status
1 | (2/2) Accurately ripped
2 | (2/2) Accurately ripped
3 | (2/2) Accurately ripped
4 | (2/2) Accurately ripped
5 | (2/2) Accurately ripped
6 | (2/2) Accurately ripped
7 | (2/2) Accurately ripped
8 | (2/2) Accurately ripped
9 | (2/2) Accurately ripped
10 | (2/2) Accurately ripped
11 | (2/2) Accurately ripped
12 | (2/2) Accurately ripped
13 | (2/2) Accurately ripped
14 | (2/2) Accurately ripped

REM GENRE Punk
REM DATE 1997
REM DISCID B50C130E
REM COMMENT “ExactAudioCopy v1.3”
PERFORMER “Dödelhaie”
TITLE “Mitternacht”
REM COMPOSER “”
FILE “Dödelhaie\Mitternacht\01. Intro.wav” WAVE
TRACK 01 AUDIO
TITLE “Intro”
PERFORMER “Dödelhaie”
REM COMPOSER “”
INDEX 01 00:00:00
TRACK 02 AUDIO
TITLE “Die Reise”
PERFORMER “Dödelhaie”
REM COMPOSER “”
INDEX 00 00:51:60
FILE “Dödelhaie\Mitternacht\02. Die Reise.wav” WAVE
INDEX 01 00:00:00
TRACK 03 AUDIO
TITLE “In Den Schatten”
PERFORMER “Dödelhaie”
REM COMPOSER “”
INDEX 00 02:15:08
FILE “Dödelhaie\Mitternacht\03. In Den Schatten.wav” WAVE
INDEX 01 00:00:00
TRACK 04 AUDIO
TITLE “Der Schlaf”
PERFORMER “Dödelhaie”
REM COMPOSER “”
INDEX 00 03:15:22
FILE “Dödelhaie\Mitternacht\04. Der Schlaf.wav” WAVE
INDEX 01 00:00:00
TRACK 05 AUDIO
TITLE “Telefon”
PERFORMER “Dödelhaie”
REM COMPOSER “”
INDEX 00 03:29:45
FILE “Dödelhaie\Mitternacht\05. Telefon.wav” WAVE
INDEX 01 00:00:00
TRACK 06 AUDIO
TITLE “Duisburg-Rostock-Moskau”
PERFORMER “Dödelhaie”
REM COMPOSER “”
INDEX 00 05:04:00
FILE “Dödelhaie\Mitternacht\06. Duisburg-Rostock-Moskau.wav” WAVE
INDEX 01 00:00:00
TRACK 07 AUDIO
TITLE “Der Deibel”
PERFORMER “Dödelhaie”
REM COMPOSER “”
INDEX 00 03:58:15
FILE “Dödelhaie\Mitternacht\07. Der Deibel.wav” WAVE
INDEX 01 00:00:00
TRACK 08 AUDIO
TITLE “Der Chirurg”
PERFORMER “Dödelhaie”
REM COMPOSER “”
INDEX 00 04:25:65
FILE “Dödelhaie\Mitternacht\08. Der Chirurg.wav” WAVE
INDEX 01 00:00:00
TRACK 09 AUDIO
TITLE “Schlachtfeld-Romantik”
PERFORMER “Dödelhaie”
REM COMPOSER “”
INDEX 00 03:13:10
FILE “Dödelhaie\Mitternacht\09. Schlachtfeld-Romantik.wav” WAVE
INDEX 01 00:00:00
TRACK 10 AUDIO
TITLE “Dunkelheit”
PERFORMER “Dödelhaie”
REM COMPOSER “”
INDEX 00 03:05:00
FILE “Dödelhaie\Mitternacht\10. Dunkelheit.wav” WAVE
INDEX 01 00:00:00
TRACK 11 AUDIO
TITLE “Weiter Gehn”
PERFORMER “Dödelhaie”
REM COMPOSER “”
INDEX 00 03:29:60
FILE “Dödelhaie\Mitternacht\11. Weiter Gehn.wav” WAVE
INDEX 01 00:00:00
TRACK 12 AUDIO
TITLE “Stark”
PERFORMER “Dödelhaie”
REM COMPOSER “”
INDEX 00 03:09:50
FILE “Dödelhaie\Mitternacht\12. Stark.wav” WAVE
INDEX 01 00:00:00
TRACK 13 AUDIO
TITLE “Endlich Gott”
PERFORMER “Dödelhaie”
REM COMPOSER “”
INDEX 00 02:50:41
FILE “Dödelhaie\Mitternacht\13. Endlich Gott.wav” WAVE
INDEX 01 00:00:00
TRACK 14 AUDIO
TITLE “Hymne”
PERFORMER “Dödelhaie”
REM COMPOSER “”
INDEX 00 03:39:53
FILE “Dödelhaie\Mitternacht\14. Hymne.wav” WAVE
INDEX 01 00:00:00


Leave a Reply

Your email address will not be published. Required fields are marked *

This site uses Akismet to reduce spam. Learn how your comment data is processed.