Disturbed – The Sickness




Artist: Disturbed
Year: 2000
Genre: Metal
Notes: Discogs
Add. Notes:
Encoder: FLAC
Bitrate: ~1100 kBit/s (44.1 kHz/16 Bit/s)
Bin/Cue incl.: Yes
Size: 390,13 MB
Password: “slam” (without ” “)


http://www.share-online.biz/dl/UQEDYSRP4X
https://rapidgator.net/file/896b8a2524a883ec0e3ecb130c375006
https://uploadbyte.com/sc5i3nsb7bil
https://justupload.io/q7r9vfhvtdg1
https://uploadever.com/c4gehzr2dzb6

Tracklist:

1 - Voices - 3:11
2 - The Game - 3:45
3 - Stupify - 4:05
4 - Down With The Sickness - 4:38
5 - Violence Fetish - 3:22
6 - Fear - 3:45
7 - Numb - 3:44
8 - Want - 3:51
9 - Conflict - 4:34
10 - Shout 2000 - 4:16
11 - Droppin' Plates - 3:43
12 - Meaning Of Life - 4:02

EAC-Log, CUE-Sheed & NFO:

Click to open spoiler
X Lossless Decoder version 20151214 (149.1)

XLD extraction logfile from 2016-03-25 14:30:11 -0400

Disturbed / The Sickness

Used drive : TSSTcorp CDDVDW SE-S224Q (revision TS02)
Media type : Pressed CD

Ripper mode : XLD Secure Ripper
Disable audio cache : OK for the drive with a cache less than 1375KiB
Make use of C2 pointers : NO
Read offset correction : 6
Max retry count : 100
Gap status : Analyzed, Appended

TOC of the extracted CD
Track | Start | Length | Start sector | End sector
———————————————————
1 | 00:00:00 | 03:12:27 | 0 | 14426
2 | 03:12:27 | 03:47:05 | 14427 | 31456
3 | 06:59:32 | 04:34:25 | 31457 | 52031
4 | 11:33:57 | 04:38:38 | 52032 | 72919
5 | 16:12:20 | 03:23:57 | 72920 | 88201
6 | 19:36:02 | 03:46:70 | 88202 | 105221
7 | 23:22:72 | 03:44:65 | 105222 | 122086
8 | 27:07:62 | 03:52:55 | 122087 | 139541
9 | 31:00:42 | 04:35:13 | 139542 | 160179
10 | 35:35:55 | 04:17:62 | 160180 | 179516
11 | 39:53:42 | 03:49:18 | 179517 | 196709
12 | 43:42:60 | 04:03:65 | 196710 | 214999
13 | 47:46:50 | 03:05:12 | 215000 | 228886

AccurateRip Summary (DiscID: 00188227-00f6229f-c20beb0d)
Track 01 : OK (v2, confidence 2/2)
Track 02 : OK (v2, confidence 2/2)
Track 03 : OK (v2, confidence 2/2)
Track 04 : OK (v2, confidence 2/2)
Track 05 : OK (v2, confidence 2/2)
Track 06 : OK (v2, confidence 2/2)
Track 07 : OK (v2, confidence 2/2)
Track 08 : OK (v2, confidence 2/2)
Track 09 : OK (v2, confidence 2/2)
Track 10 : OK (v2, confidence 2/2)
Track 11 : OK (v2, confidence 2/2)
Track 12 : OK (v2, confidence 1/2)
Track 13 : OK (v2, confidence 2/2)
->All tracks accurately ripped.

All Tracks
Album gain : -10.85 dB
Peak : 0.999969
Statistics
Read error : 0
Jitter error (maybe fixed) : 0
Retry sector count : 0
Damaged sector count : 0

Track 01
Filename : /Users/Jim/Desktop/Untitled Folder/Disturbed – The Sickness – FLAC/01 Voices.flac
Pre-gap length : 00:02:00

Track gain : -10.65 dB
Peak : 0.999969
CRC32 hash (test run) : 7EC13F66
CRC32 hash : 7EC13F66
CRC32 hash (skip zero) : 157A0F75
AccurateRip v1 signature : B9B881B3
AccurateRip v2 signature : 1E19AAEA
->Accurately ripped (v2, confidence 2/2)
Statistics
Read error : 0
Jitter error (maybe fixed) : 0
Retry sector count : 0
Damaged sector count : 0

Track 02
Filename : /Users/Jim/Desktop/Untitled Folder/Disturbed – The Sickness – FLAC/02 The Game.flac

Track gain : -10.20 dB
Peak : 0.890381
CRC32 hash (test run) : 92A8243D
CRC32 hash : 92A8243D
CRC32 hash (skip zero) : E47A4D5F
AccurateRip v1 signature : 03A080ED
AccurateRip v2 signature : 3C244D7F
->Accurately ripped (v2, confidence 2/2)
Statistics
Read error : 0
Jitter error (maybe fixed) : 0
Retry sector count : 0
Damaged sector count : 0

Track 03
Filename : /Users/Jim/Desktop/Untitled Folder/Disturbed – The Sickness – FLAC/03 Stupify.flac
Pre-gap length : 00:00:65

Track gain : -10.81 dB
Peak : 0.999023
CRC32 hash (test run) : AB03079F
CRC32 hash : AB03079F
CRC32 hash (skip zero) : 3B07D7D5
AccurateRip v1 signature : 18EB5E48
AccurateRip v2 signature : 63D393C6
->Accurately ripped (v2, confidence 2/2)
Statistics
Read error : 0
Jitter error (maybe fixed) : 0
Retry sector count : 0
Damaged sector count : 0

Track 04
Filename : /Users/Jim/Desktop/Untitled Folder/Disturbed – The Sickness – FLAC/04 Down With the Sickness.flac
Pre-gap length : 00:28:60

Track gain : -11.32 dB
Peak : 0.999969
CRC32 hash (test run) : 5490912C
CRC32 hash : 5490912C
CRC32 hash (skip zero) : E7E4665C
AccurateRip v1 signature : 93B1E7C2
AccurateRip v2 signature : BFB443A0
->Accurately ripped (v2, confidence 2/2)
Statistics
Read error : 0
Jitter error (maybe fixed) : 0
Retry sector count : 0
Damaged sector count : 0

Track 05
Filename : /Users/Jim/Desktop/Untitled Folder/Disturbed – The Sickness – FLAC/05 Violence Fetish.flac

Track gain : -11.46 dB
Peak : 0.999817
CRC32 hash (test run) : 226EC13E
CRC32 hash : 226EC13E
CRC32 hash (skip zero) : 2F51441E
AccurateRip v1 signature : 298AE73D
AccurateRip v2 signature : 02B73A15
->Accurately ripped (v2, confidence 2/2)
Statistics
Read error : 0
Jitter error (maybe fixed) : 0
Retry sector count : 0
Damaged sector count : 0

Track 06
Filename : /Users/Jim/Desktop/Untitled Folder/Disturbed – The Sickness – FLAC/06 Fear.flac
Pre-gap length : 00:00:52

Track gain : -11.65 dB
Peak : 0.999023
CRC32 hash (test run) : 203A3791
CRC32 hash : 203A3791
CRC32 hash (skip zero) : AB0E193A
AccurateRip v1 signature : D2F2FE33
AccurateRip v2 signature : A0AB8BD0
->Accurately ripped (v2, confidence 2/2)
Statistics
Read error : 0
Jitter error (maybe fixed) : 0
Retry sector count : 0
Damaged sector count : 0

Track 07
Filename : /Users/Jim/Desktop/Untitled Folder/Disturbed – The Sickness – FLAC/07 Numb.flac
Pre-gap length : 00:01:00

Track gain : -11.33 dB
Peak : 0.999969
CRC32 hash (test run) : 83A07475
CRC32 hash : 83A07475
CRC32 hash (skip zero) : 436B63B3
AccurateRip v1 signature : F5FAE05C
AccurateRip v2 signature : B071DEA2
->Accurately ripped (v2, confidence 2/2)
Statistics
Read error : 0
Jitter error (maybe fixed) : 0
Retry sector count : 0
Damaged sector count : 0

Track 08
Filename : /Users/Jim/Desktop/Untitled Folder/Disturbed – The Sickness – FLAC/08 Want.flac

Track gain : -10.50 dB
Peak : 0.999969
CRC32 hash (test run) : 2849130A
CRC32 hash : 2849130A
CRC32 hash (skip zero) : 7E05D7DA
AccurateRip v1 signature : 189139F6
AccurateRip v2 signature : BFC2FF62
->Accurately ripped (v2, confidence 2/2)
Statistics
Read error : 0
Jitter error (maybe fixed) : 0
Retry sector count : 0
Damaged sector count : 0

Track 09
Filename : /Users/Jim/Desktop/Untitled Folder/Disturbed – The Sickness – FLAC/09 Conflict.flac
Pre-gap length : 00:00:62

Track gain : -9.16 dB
Peak : 0.999023
CRC32 hash (test run) : 5644A198
CRC32 hash : 5644A198
CRC32 hash (skip zero) : B99F0138
AccurateRip v1 signature : A39AF37C
AccurateRip v2 signature : D3B086A3
->Accurately ripped (v2, confidence 2/2)
Statistics
Read error : 0
Jitter error (maybe fixed) : 0
Retry sector count : 0
Damaged sector count : 0

Track 10
Filename : /Users/Jim/Desktop/Untitled Folder/Disturbed – The Sickness – FLAC/10 Shout 2000.flac

Track gain : -10.03 dB
Peak : 0.999969
CRC32 hash (test run) : 55E70D2B
CRC32 hash : 55E70D2B
CRC32 hash (skip zero) : D3052E11
AccurateRip v1 signature : 77AAB9E2
AccurateRip v2 signature : FE1E7C66
->Accurately ripped (v2, confidence 2/2)
Statistics
Read error : 0
Jitter error (maybe fixed) : 0
Retry sector count : 0
Damaged sector count : 0

Track 11
Filename : /Users/Jim/Desktop/Untitled Folder/Disturbed – The Sickness – FLAC/11 Droppin’ Plates.flac
Pre-gap length : 00:00:52

Track gain : -10.71 dB
Peak : 0.999969
CRC32 hash (test run) : 70CEF585
CRC32 hash : 70CEF585
CRC32 hash (skip zero) : 33CB6535
AccurateRip v1 signature : 765943E4
AccurateRip v2 signature : D7102289
->Accurately ripped (v2, confidence 2/2)
Statistics
Read error : 0
Jitter error (maybe fixed) : 0
Retry sector count : 0
Damaged sector count : 0

Track 12
Filename : /Users/Jim/Desktop/Untitled Folder/Disturbed – The Sickness – FLAC/12 Meaning of Life.flac
Pre-gap length : 00:01:05

Track gain : -10.42 dB
Peak : 0.999969
CRC32 hash (test run) : EA9BA322
CRC32 hash : EA9BA322
CRC32 hash (skip zero) : EFE9246A
AccurateRip v1 signature : 2EFD153F
AccurateRip v2 signature : D3A56E40
->Accurately ripped (v2, confidence 1/2)
Statistics
Read error : 0
Jitter error (maybe fixed) : 0
Retry sector count : 0
Damaged sector count : 0

Track 13
Filename : /Users/Jim/Desktop/Untitled Folder/Disturbed – The Sickness – FLAC/13 God of the Mind.flac
Pre-gap length : 00:01:25

Track gain : -9.41 dB
Peak : 0.999023
CRC32 hash (test run) : E90C7083
CRC32 hash : E90C7083
CRC32 hash (skip zero) : 60548AB2
AccurateRip v1 signature : ABB747A9
AccurateRip v2 signature : DA3DA914
->Accurately ripped (v2, confidence 2/2)
Statistics
Read error : 0
Jitter error (maybe fixed) : 0
Retry sector count : 0
Damaged sector count : 0

No errors occurred

End of status report

—–BEGIN XLD SIGNATURE—–
ffXBX6jzjiOVt6KPB7qBmbMtlGkhf4QhbDuy3j1_Wc9G.bvfGyYCOXaq12GkvtFuj6V5xxKeL8MVoRiQMWrQ.CHbND80EN6F.YbdRnq
—–END XLD SIGNATURE—–

TITLE “The Sickness”
PERFORMER “Disturbed”
REM GENRE “Metal”
REM DATE “2000”
REM DISCNUMBER 1
REM TOTALDISCS 1
REM DISCID C20BEB0D
REM REPLAYGAIN_ALBUM_GAIN -10.85 dB
REM REPLAYGAIN_ALBUM_PEAK 0.999969
FILE “01 Voices.flac” WAVE
TRACK 01 AUDIO
TITLE “Voices”
REM REPLAYGAIN_TRACK_GAIN -10.65 dB
REM REPLAYGAIN_TRACK_PEAK 0.999969
INDEX 01 00:00:00
FILE “02 The Game.flac” WAVE
TRACK 02 AUDIO
TITLE “The Game”
REM REPLAYGAIN_TRACK_GAIN -10.20 dB
REM REPLAYGAIN_TRACK_PEAK 0.890381
INDEX 01 00:00:00
TRACK 03 AUDIO
TITLE “Stupify”
REM REPLAYGAIN_TRACK_GAIN -10.81 dB
REM REPLAYGAIN_TRACK_PEAK 0.999023
INDEX 00 03:46:15
FILE “03 Stupify.flac” WAVE
INDEX 01 00:00:00
TRACK 04 AUDIO
TITLE “Down With the Sickness”
REM REPLAYGAIN_TRACK_GAIN -11.32 dB
REM REPLAYGAIN_TRACK_PEAK 0.999969
INDEX 00 04:05:40
FILE “04 Down With the Sickness.flac” WAVE
INDEX 01 00:00:00
FILE “05 Violence Fetish.flac” WAVE
TRACK 05 AUDIO
TITLE “Violence Fetish”
REM REPLAYGAIN_TRACK_GAIN -11.46 dB
REM REPLAYGAIN_TRACK_PEAK 0.999817
INDEX 01 00:00:00
TRACK 06 AUDIO
TITLE “Fear”
REM REPLAYGAIN_TRACK_GAIN -11.65 dB
REM REPLAYGAIN_TRACK_PEAK 0.999023
INDEX 00 03:23:05
FILE “06 Fear.flac” WAVE
INDEX 01 00:00:00
TRACK 07 AUDIO
TITLE “Numb”
REM REPLAYGAIN_TRACK_GAIN -11.33 dB
REM REPLAYGAIN_TRACK_PEAK 0.999969
INDEX 00 03:45:70
FILE “07 Numb.flac” WAVE
INDEX 01 00:00:00
FILE “08 Want.flac” WAVE
TRACK 08 AUDIO
TITLE “Want”
REM REPLAYGAIN_TRACK_GAIN -10.50 dB
REM REPLAYGAIN_TRACK_PEAK 0.999969
INDEX 01 00:00:00
TRACK 09 AUDIO
TITLE “Conflict”
REM REPLAYGAIN_TRACK_GAIN -9.16 dB
REM REPLAYGAIN_TRACK_PEAK 0.999023
INDEX 00 03:51:68
FILE “09 Conflict.flac” WAVE
INDEX 01 00:00:00
FILE “10 Shout 2000.flac” WAVE
TRACK 10 AUDIO
TITLE “Shout 2000”
REM REPLAYGAIN_TRACK_GAIN -10.03 dB
REM REPLAYGAIN_TRACK_PEAK 0.999969
INDEX 01 00:00:00
TRACK 11 AUDIO
TITLE “Droppin’ Plates”
REM REPLAYGAIN_TRACK_GAIN -10.71 dB
REM REPLAYGAIN_TRACK_PEAK 0.999969
INDEX 00 04:17:10
FILE “11 Droppin’ Plates.flac” WAVE
INDEX 01 00:00:00
TRACK 12 AUDIO
TITLE “Meaning of Life”
REM REPLAYGAIN_TRACK_GAIN -10.42 dB
REM REPLAYGAIN_TRACK_PEAK 0.999969
INDEX 00 03:48:13
FILE “12 Meaning of Life.flac” WAVE
INDEX 01 00:00:00
TRACK 13 AUDIO
TITLE “God of the Mind”
REM REPLAYGAIN_TRACK_GAIN -9.41 dB
REM REPLAYGAIN_TRACK_PEAK 0.999023
INDEX 00 04:02:40
FILE “13 God of the Mind.flac” WAVE
INDEX 01 00:00:00

Leave a Reply

Your email address will not be published. Required fields are marked *

This site uses Akismet to reduce spam. Learn how your comment data is processed.