Disturbed – The Sickness (10th Anniversary Edition) (Remastered)




Artist: Disturbed
Year: 2000/2010
Genre: Rock
Notes: Discogs
Add. Notes: Remastered
Encoder: FLAC
Bitrate: ~1000 kBit/s (44.1 kHz/16 Bit/s)
Bin/Cue incl.: Yes
Size: 420,06 MB
Password: “slam” (without ” “)


http://www.share-online.biz/dl/T1C3LTRPT7
https://rapidgator.net/file/7345a6fd3483c3fe0973356b5008390f
https://uploadbyte.com/76mctip5pv0y
https://justupload.io/rczk1ffuonbf
https://uploadever.com/gs419k8vxgg3

Tracklist:

1 - Voices - 3:12
2 - The Game - 3:46
3 - Stupify - 4:34
4 - Down With The Sicknes - 4:38
5 - Violence Fetish - 3:23
6 - Fear - 3:46
7 - Numb - 3:44
8 - Want - 3:52
9 - Conflict - 4:35
10 - Shout2000 - 4:18
11 - Droppin' Plates - 3:48
12 - Meaning Of Life - 4:02
13 - God Of The Mind - 3:05
14 - A Welcome Burden - 3:31

EAC-Log, CUE-Sheed & NFO:

Click to open spoiler
Exact Audio Copy V1.0 beta 3 from 29. August 2011

EAC extraction logfile from 12. November 2012, 20:58

Disturbed / The Sickness (10th Anniversary Edition) [Clean]

Used drive : HL-DT-STDVDRAM GT32N Adapter: 0 ID: 1

Read mode : Secure
Utilize accurate stream : Yes
Defeat audio cache : Yes
Make use of C2 pointers : No

Read offset correction : 103
Overread into Lead-In and Lead-Out : No
Fill up missing offset samples with silence : Yes
Delete leading and trailing silent blocks : No
Null samples used in CRC calculations : Yes
Used interface : Native Win32 interface for Win NT & 2000
Gap handling : Appended to previous track

Used output format : User Defined Encoder
Selected bitrate : 128 kBit/s
Quality : High
Add ID3 tag : No
Command line compressor : C:\Program Files (x86)\FLAC\flac.exe
Additional command line options : -T “artist=%artist%” -T “title=%title%” -T “album=%albumtitle%” -T “date=%year%” -T “tracknumber=%tracknr%” -T “genre=%genre%” -5 %source%

TOC of the extracted CD

Track | Start | Length | Start sector | End sector
———————————————————
1 | 0:00.00 | 3:12.12 | 0 | 14411
2 | 3:12.12 | 3:46.67 | 14412 | 31428
3 | 6:59.04 | 4:34.00 | 31429 | 51978
4 | 11:33.04 | 4:38.52 | 51979 | 72880
5 | 16:11.56 | 3:23.44 | 72881 | 88149
6 | 19:35.25 | 3:46.68 | 88150 | 105167
7 | 23:22.18 | 3:44.62 | 105168 | 122029
8 | 27:07.05 | 3:52.42 | 122030 | 139471
9 | 30:59.47 | 4:35.20 | 139472 | 160116
10 | 35:34.67 | 4:18.09 | 160117 | 179475
11 | 39:53.01 | 3:48.53 | 179476 | 196628
12 | 43:41.54 | 4:02.15 | 196629 | 214793
13 | 47:43.69 | 3:05.41 | 214794 | 228709
14 | 50:49.35 | 3:31.15 | 228710 | 244549

Track 1

Filename C:\EAC Rips\Disturbed – The Sickness (10th Anniversary Edition) [Clean] – FLAC\01 Disturbed – Voices.wav

Pre-gap length 0:00:02.00

Peak level 100.0 %
Extraction speed 1.2 X
Track quality 100.0 %
Test CRC FE741075
Copy CRC FE741075
Track not present in AccurateRip database
Copy OK

Track 2

Filename C:\EAC Rips\Disturbed – The Sickness (10th Anniversary Edition) [Clean] – FLAC\02 Disturbed – The Game.wav

Peak level 100.0 %
Extraction speed 1.4 X
Track quality 100.0 %
Test CRC B055C21A
Copy CRC B055C21A
Track not present in AccurateRip database
Copy OK

Track 3

Filename C:\EAC Rips\Disturbed – The Sickness (10th Anniversary Edition) [Clean] – FLAC\03 Disturbed – Stupify.wav

Pre-gap length 0:01:51.37

Peak level 100.0 %
Extraction speed 1.5 X
Track quality 100.0 %
Test CRC DC117885
Copy CRC DC117885
Track not present in AccurateRip database
Copy OK

Track 4

Filename C:\EAC Rips\Disturbed – The Sickness (10th Anniversary Edition) [Clean] – FLAC\04 Disturbed – Down With The Sickness.wav

Peak level 100.0 %
Extraction speed 1.7 X
Track quality 100.0 %
Test CRC 3689CB86
Copy CRC 3689CB86
Track not present in AccurateRip database
Copy OK

Track 5

Filename C:\EAC Rips\Disturbed – The Sickness (10th Anniversary Edition) [Clean] – FLAC\05 Disturbed – Violence Fetish.wav

Pre-gap length 0:01:06.44

Peak level 100.0 %
Extraction speed 1.7 X
Track quality 100.0 %
Test CRC 25F4B646
Copy CRC 25F4B646
Track not present in AccurateRip database
Copy OK

Track 6

Filename C:\EAC Rips\Disturbed – The Sickness (10th Anniversary Edition) [Clean] – FLAC\06 Disturbed – Fear.wav

Pre-gap length 0:01:39.57

Peak level 100.0 %
Extraction speed 1.8 X
Track quality 100.0 %
Test CRC 6CED0267
Copy CRC 6CED0267
Track not present in AccurateRip database
Copy OK

Track 7

Filename C:\EAC Rips\Disturbed – The Sickness (10th Anniversary Edition) [Clean] – FLAC\07 Disturbed – Numb.wav

Pre-gap length 0:01:51.40

Peak level 100.0 %
Extraction speed 1.9 X
Track quality 100.0 %
Test CRC 656209EF
Copy CRC 656209EF
Track not present in AccurateRip database
Copy OK

Track 8

Filename C:\EAC Rips\Disturbed – The Sickness (10th Anniversary Edition) [Clean] – FLAC\08 Disturbed – Want.wav

Peak level 100.0 %
Extraction speed 2.0 X
Track quality 100.0 %
Test CRC 97D5DB51
Copy CRC 97D5DB51
Track not present in AccurateRip database
Copy OK

Track 9

Filename C:\EAC Rips\Disturbed – The Sickness (10th Anniversary Edition) [Clean] – FLAC\09 Disturbed – Conflict.wav

Peak level 100.0 %
Extraction speed 2.2 X
Track quality 100.0 %
Test CRC 4E91A0DF
Copy CRC 4E91A0DF
Track not present in AccurateRip database
Copy OK

Track 10

Filename C:\EAC Rips\Disturbed – The Sickness (10th Anniversary Edition) [Clean] – FLAC\10 Disturbed – Shout 2000.wav

Pre-gap length 0:00:00.37

Peak level 100.0 %
Extraction speed 2.3 X
Track quality 100.0 %
Test CRC C5FC0556
Copy CRC C5FC0556
Track not present in AccurateRip database
Copy OK

Track 11

Filename C:\EAC Rips\Disturbed – The Sickness (10th Anniversary Edition) [Clean] – FLAC\11 Disturbed – Droppin’ Plates.wav

Pre-gap length 0:02:06.71

Peak level 100.0 %
Extraction speed 2.0 X
Track quality 99.9 %
Test CRC DA189E5F
Copy CRC DA189E5F
Track not present in AccurateRip database
Copy OK

Track 12

Filename C:\EAC Rips\Disturbed – The Sickness (10th Anniversary Edition) [Clean] – FLAC\12 Disturbed – Meaning Of Life.wav

Pre-gap length 0:00:00.03

Peak level 100.0 %
Extraction speed 2.4 X
Track quality 100.0 %
Test CRC F867D2D5
Copy CRC F867D2D5
Track not present in AccurateRip database
Copy OK

Track 13

Filename C:\EAC Rips\Disturbed – The Sickness (10th Anniversary Edition) [Clean] – FLAC\13 Disturbed – God Of The Mind.wav

Peak level 100.0 %
Extraction speed 2.3 X
Track quality 100.0 %
Test CRC 52060BC3
Copy CRC 52060BC3
Track not present in AccurateRip database
Copy OK

Track 14

Filename C:\EAC Rips\Disturbed – The Sickness (10th Anniversary Edition) [Clean] – FLAC\14 Disturbed – A Welcome Burden.wav

Peak level 100.0 %
Extraction speed 2.4 X
Track quality 100.0 %
Test CRC 18E5F31A
Copy CRC 18E5F31A
Track not present in AccurateRip database
Copy OK

None of the tracks are present in the AccurateRip database

No errors occurred

End of status report

==== Log checksum 527E2386BD59E72B80DA5CF5A4B81E48F31527E36E9A85BAF7073B85EF711B75 ====

REM GENRE Rock
REM DATE 2000
REM DISCID C30CBC0E
REM COMMENT “ExactAudioCopy v1.0b3”
PERFORMER “Disturbed”
TITLE “The Sickness (10th Anniversary Edition) [Clean]”
FILE “01 Disturbed – Voices.wav” WAVE
TRACK 01 AUDIO
TITLE “Voices”
PERFORMER “Disturbed”
FLAGS DCP
INDEX 01 00:00:00
FILE “02 Disturbed – The Game.wav” WAVE
TRACK 02 AUDIO
TITLE “The Game”
PERFORMER “Disturbed”
FLAGS DCP
INDEX 01 00:00:00
TRACK 03 AUDIO
TITLE “Stupify”
PERFORMER “Disturbed”
FLAGS DCP
INDEX 00 01:55:30
FILE “03 Disturbed – Stupify.wav” WAVE
INDEX 01 00:00:00
FILE “04 Disturbed – Down With The Sickness.wav” WAVE
TRACK 04 AUDIO
TITLE “Down With The Sickness”
PERFORMER “Disturbed”
FLAGS DCP
INDEX 01 00:00:00
TRACK 05 AUDIO
TITLE “Violence Fetish”
PERFORMER “Disturbed”
FLAGS DCP
INDEX 00 03:32:08
FILE “05 Disturbed – Violence Fetish.wav” WAVE
INDEX 01 00:00:00
TRACK 06 AUDIO
TITLE “Fear”
PERFORMER “Disturbed”
FLAGS DCP
INDEX 00 01:43:62
FILE “06 Disturbed – Fear.wav” WAVE
INDEX 01 00:00:00
TRACK 07 AUDIO
TITLE “Numb”
PERFORMER “Disturbed”
FLAGS DCP
INDEX 00 01:55:28
FILE “07 Disturbed – Numb.wav” WAVE
INDEX 01 00:00:00
FILE “08 Disturbed – Want.wav” WAVE
TRACK 08 AUDIO
TITLE “Want”
PERFORMER “Disturbed”
FLAGS DCP
INDEX 01 00:00:00
FILE “09 Disturbed – Conflict.wav” WAVE
TRACK 09 AUDIO
TITLE “Conflict”
PERFORMER “Disturbed”
FLAGS DCP
INDEX 01 00:00:00
TRACK 10 AUDIO
TITLE “Shout 2000”
PERFORMER “Disturbed”
FLAGS DCP
INDEX 00 04:34:58
FILE “10 Disturbed – Shout 2000.wav” WAVE
INDEX 01 00:00:00
TRACK 11 AUDIO
TITLE “Droppin’ Plates”
PERFORMER “Disturbed”
FLAGS DCP
INDEX 00 02:11:13
FILE “11 Disturbed – Droppin’ Plates.wav” WAVE
INDEX 01 00:00:00
TRACK 12 AUDIO
TITLE “Meaning Of Life”
PERFORMER “Disturbed”
FLAGS DCP
INDEX 00 03:48:50
FILE “12 Disturbed – Meaning Of Life.wav” WAVE
INDEX 01 00:00:00
FILE “13 Disturbed – God Of The Mind.wav” WAVE
TRACK 13 AUDIO
TITLE “God Of The Mind”
PERFORMER “Disturbed”
FLAGS DCP
INDEX 01 00:00:00
FILE “14 Disturbed – A Welcome Burden.wav” WAVE
TRACK 14 AUDIO
TITLE “A Welcome Burden”
PERFORMER “Disturbed”
FLAGS DCP
INDEX 01 00:00:00

Leave a Reply

Your email address will not be published. Required fields are marked *

This site uses Akismet to reduce spam. Learn how your comment data is processed.