Disturbed – Ten Thousand Fists




Artist: Disturbed
Year: 2005
Genre: Metal
Notes: Discogs
Add. Notes:
Cover incl.: Yes
Encoder: ALAC
Bitrate: ~1000 kBit/s (44.1 kHz/16 Bit/s)
Log & Cue incl.: Yes
Size: 435,5 MB
Password: “slam” (without ” “)


All Downloads/Hosters are compatible

Download 1
KatFile.com
Turbobit.net
FileFactory.com
Rapidgator.net
Download 2
KatFile.com
Turbobit.net
FileFactory.com
Rapidgator.net

Tracklist:

1 - Ten Thousand Fists - 3:32
2 - Just Stop - 3:43
3 - Guarded - 3:20
4 - Deify - 4:17
5 - Stricken - 4:05
6 - I'm Alive - 4:41
7 - Sons Of Plunder - 3:47
8 - Overburdened - 5:57
9 - Decadence - 3:24
10 - Forgiven - 4:12
11 - Land Of Confusion (Cover version) - 4:49
12 - Sacred Lie - 3:05
13 - Pain Redefined - 4:17
14 - Avarice - 2:56

EAC-Log, CUE-Sheed & NFO:

Click to open spoiler
Exact Audio Copy V0.99 prebeta 5 from 4. May 2009

EAC extraction logfile from 14. May 2011, 19:48

Disturbed / Ten Thousand Fists

Used drive : ASUS DRW-2014L1T Adapter: 4 ID: 0

Read mode : Secure
Utilize accurate stream : Yes
Defeat audio cache : Yes
Make use of C2 pointers : No

Read offset correction : 6
Overread into Lead-In and Lead-Out : No
Fill up missing offset samples with silence : Yes
Delete leading and trailing silent blocks : No
Null samples used in CRC calculations : Yes
Used interface : Native Win32 interface for Win NT & 2000

Used output format : Internal WAV Routines
Sample format : 44.100 Hz; 16 Bit; Stereo

TOC of the extracted CD

Track | Start | Length | Start sector | End sector
———————————————————
1 | 0:00.00 | 3:33.20 | 0 | 15994
2 | 3:33.20 | 3:46.19 | 15995 | 32963
3 | 7:19.39 | 3:22.42 | 32964 | 48155
4 | 10:42.06 | 4:18.19 | 48156 | 67524
5 | 15:00.25 | 4:07.17 | 67525 | 86066
6 | 19:07.42 | 4:42.04 | 86067 | 107220
7 | 23:49.46 | 3:50.42 | 107221 | 124512
8 | 27:40.13 | 5:59.24 | 124513 | 151461
9 | 33:39.37 | 3:27.04 | 151462 | 166990
10 | 37:06.41 | 4:15.04 | 166991 | 186119
11 | 41:21.45 | 4:50.10 | 186120 | 207879
12 | 46:11.55 | 3:08.03 | 207880 | 221982
13 | 49:19.58 | 4:09.66 | 221983 | 240723
14 | 53:29.49 | 2:56.60 | 240724 | 253983

Range status and errors

Selected range

Filename Z:\DISTURBED\2005 – Ten Thousand Fists.wav

Peak level 96.6 %
Range quality 100.0 %
Test CRC B0280CCD
Copy CRC B0280CCD
Copy OK

No errors occurred

AccurateRip summary

Track 1 accurately ripped (confidence 174) [68453DC5]
Track 2 accurately ripped (confidence 175) [9E1F8D3A]
Track 3 accurately ripped (confidence 177) [85944E9B]
Track 4 accurately ripped (confidence 176) [09F2C78C]
Track 5 accurately ripped (confidence 179) [6E80375F]
Track 6 accurately ripped (confidence 179) [F9A02DF9]
Track 7 accurately ripped (confidence 177) [E8965A33]
Track 8 accurately ripped (confidence 177) [7284944A]
Track 9 accurately ripped (confidence 177) [4F1D1472]
Track 10 accurately ripped (confidence 176) [EB2760FA]
Track 11 accurately ripped (confidence 177) [E2D6F250]
Track 12 accurately ripped (confidence 177) [2C115C49]
Track 13 accurately ripped (confidence 175) [C0C0F332]
Track 14 accurately ripped (confidence 175) [313FED14]

All tracks accurately ripped

End of status report

REM GENRE “Alternative Metal”
REM DATE 2005
PERFORMER “Disturbed”
TITLE “Ten Thousand Fists”
REM DISCNUMBER 1
REM TOTALDISCS 1
FILE “01. Ten Thousand Fists.m4a” WAVE
TRACK 01 AUDIO
TITLE “Ten Thousand Fists”
ISRC USRE10500888
INDEX 01 00:00:00
TRACK 02 AUDIO
TITLE “Just Stop”
ISRC USRE10500889
INDEX 00 03:32:03
FILE “02. Just Stop.m4a” WAVE
INDEX 01 00:00:00
TRACK 03 AUDIO
TITLE “Guarded”
ISRC USRE10500659
INDEX 00 03:43:34
FILE “03. Guarded.m4a” WAVE
INDEX 01 00:00:00
TRACK 04 AUDIO
TITLE “Deify”
ISRC USRE10501015
INDEX 00 03:20:22
FILE “04. Deify.m4a” WAVE
INDEX 01 00:00:00
TRACK 05 AUDIO
TITLE “Stricken”
ISRC USRE10500766
INDEX 00 04:16:43
FILE “05. Stricken.m4a” WAVE
INDEX 01 00:00:00
TRACK 06 AUDIO
TITLE “I’m Alive”
ISRC USRE10501016
INDEX 00 04:05:17
FILE “06. I’m Alive.m4a” WAVE
INDEX 01 00:00:00
FILE “07. Sons of Plunder.m4a” WAVE
TRACK 07 AUDIO
TITLE “Sons of Plunder”
ISRC USRE10501017
INDEX 01 00:00:00
TRACK 08 AUDIO
TITLE “Overburdened”
ISRC USRE10501018
INDEX 00 03:48:02
FILE “08. Overburdened.m4a” WAVE
INDEX 01 00:00:00
TRACK 09 AUDIO
TITLE “Decadence”
ISRC USRE10501019
INDEX 00 05:57:24
FILE “09. Decadence.m4a” WAVE
INDEX 01 00:00:00
TRACK 10 AUDIO
TITLE “Forgiven”
ISRC USRE10501020
INDEX 00 03:24:59
FILE “10. Forgiven.m4a” WAVE
INDEX 01 00:00:00
TRACK 11 AUDIO
TITLE “Land of Confusion”
ISRC USRE10501021
INDEX 00 04:12:04
FILE “11. Land of Confusion.m4a” WAVE
INDEX 01 00:00:00
TRACK 12 AUDIO
TITLE “Sacred Lie”
ISRC USRE10501022
INDEX 00 04:48:56
FILE “12. Sacred Lie.m4a” WAVE
INDEX 01 00:00:00
TRACK 13 AUDIO
TITLE “Pain Redefined”
ISRC USRE10501023
INDEX 00 03:05:48
FILE “13. Pain Redefined.m4a” WAVE
INDEX 01 00:00:00
TRACK 14 AUDIO
TITLE “Avarice”
ISRC USRE10501024
INDEX 00 04:07:06
FILE “14. Avarice.m4a” WAVE
INDEX 01 00:00:00


Leave a Reply

Your email address will not be published. Required fields are marked *

This site uses Akismet to reduce spam. Learn how your comment data is processed.