Disturbed – Indestructible




[Total: 0    Average: 0/5]

Artist: Disturbed
Year: 2008
Genre: Metal
Notes: Discogs
Add. Notes:
Cover incl.: Yes
Encoder: ALAC
Bitrate: ~1000 kBit/s (44.1 kHz/16 Bit/s)
Log & Cue incl.: Yes
Size: 374 MB
Password: “slam” (without ” “)


All Downloads/Hosters are compatible

Download 1
KatFile.com
Turbobit.net
FileFactory.com
Rapidgator.net
Download 2
KatFile.com
Turbobit.net
FileFactory.com
Rapidgator.net

Tracklist:

1 - Indestructible - 4:38
2 - Inside The Fire - 3:51
3 - Deceiver - 3:49
4 - The Night - 4:45
5 - Perfect Insanity - 3:56
6 - Haunted - 4:42
7 - Enough - 4:19
8 - The Curse - 3:24
9 - Torn - 4:09
10 - Criminal - 4:15
11 - Divide - 3:36
12 - Façade - 3:49

EAC-Log, CUE-Sheed & NFO:

Click to open spoiler
Exact Audio Copy V0.99 prebeta 4 from 23. January 2008

EAC extraction logfile from 16. February 2009, 11:23

Disturbed / Indestructible

Used drive : IBM CDRW-USB2 Adapter: 4 ID: 0

Read mode : Secure
Utilize accurate stream : Yes
Defeat audio cache : Yes
Make use of C2 pointers : No

Read offset correction : 685
Overread into Lead-In and Lead-Out : No
Fill up missing offset samples with silence : Yes
Delete leading and trailing silent blocks : No
Null samples used in CRC calculations : Yes
Used interface : Native Win32 interface for Win NT & 2000
Gap handling : Appended to previous track

Used output format : User Defined Encoder
Selected bitrate : 128 kBit/s
Quality : High
Add ID3 tag : No
Command line compressor : C:\Program Files\Exact Audio Copy\Flac\flac.exe
Additional command line options : -V -8 -T “artist=%a” -T “title=%t” -T “album=%g” -T “date=%y” -T “tracknumber=%n” -T “genre=%m” %s

TOC of the extracted CD

Track | Start | Length | Start sector | End sector
———————————————————
1 | 0:00.00 | 4:38.02 | 0 | 20851
2 | 4:38.02 | 3:51.36 | 20852 | 38212
3 | 8:29.38 | 3:49.27 | 38213 | 55414
4 | 12:18.65 | 4:46.00 | 55415 | 76864
5 | 17:04.65 | 3:56.42 | 76865 | 94606
6 | 21:01.32 | 4:42.11 | 94607 | 115767
7 | 25:43.43 | 4:19.71 | 115768 | 135263
8 | 30:03.39 | 3:24.41 | 135264 | 150604
9 | 33:28.05 | 4:09.23 | 150605 | 169302
10 | 37:37.28 | 4:15.70 | 169303 | 188497
11 | 41:53.23 | 3:36.24 | 188498 | 204721
12 | 45:29.47 | 3:47.09 | 204722 | 221755

Track 1

Filename C:\EACRips\FLAC\Disturbed – 2008 -Indestructible\01 – Indestructible.wav

Pre-gap length 0:00:02.00

Peak level 100.0 %
Track quality 100.0 %
Test CRC E6BE8867
Copy CRC E6BE8867
Accurately ripped (confidence 104) [A8187ADF]
Copy OK

Track 2

Filename C:\EACRips\FLAC\Disturbed – 2008 -Indestructible\02 – Inside The Fire.wav

Peak level 100.0 %
Track quality 100.0 %
Test CRC 78FDC7E0
Copy CRC 78FDC7E0
Accurately ripped (confidence 104) [084826C4]
Copy OK

Track 3

Filename C:\EACRips\FLAC\Disturbed – 2008 -Indestructible\03 – Deceiver.wav

Peak level 100.0 %
Track quality 100.0 %
Test CRC 7BBF8FCD
Copy CRC 7BBF8FCD
Accurately ripped (confidence 104) [06BF2A4A]
Copy OK

Track 4

Filename C:\EACRips\FLAC\Disturbed – 2008 -Indestructible\04 – The Night.wav

Peak level 100.0 %
Track quality 100.0 %
Test CRC 41926FFB
Copy CRC 41926FFB
Accurately ripped (confidence 103) [843E14EB]
Copy OK

Track 5

Filename C:\EACRips\FLAC\Disturbed – 2008 -Indestructible\05 – Perfect Insanity.wav

Peak level 100.0 %
Track quality 100.0 %
Test CRC 61A7E7FA
Copy CRC 61A7E7FA
Accurately ripped (confidence 104) [715BE752]
Copy OK

Track 6

Filename C:\EACRips\FLAC\Disturbed – 2008 -Indestructible\06 – Haunted.wav

Peak level 100.0 %
Track quality 100.0 %
Test CRC E7682EF9
Copy CRC E7682EF9
Accurately ripped (confidence 103) [FDA01487]
Copy OK

Track 7

Filename C:\EACRips\FLAC\Disturbed – 2008 -Indestructible\07 – Enough.wav

Peak level 100.0 %
Track quality 100.0 %
Test CRC 44EC70BD
Copy CRC 44EC70BD
Accurately ripped (confidence 102) [BF88AEBF]
Copy OK

Track 8

Filename C:\EACRips\FLAC\Disturbed – 2008 -Indestructible\08 – The Curse.wav

Peak level 100.0 %
Track quality 99.9 %
Test CRC EFAE0A53
Copy CRC EFAE0A53
Accurately ripped (confidence 102) [26B97D6D]
Copy OK

Track 9

Filename C:\EACRips\FLAC\Disturbed – 2008 -Indestructible\09 – Torn.wav

Peak level 100.0 %
Track quality 100.0 %
Test CRC CA5DE345
Copy CRC CA5DE345
Accurately ripped (confidence 103) [199CC0DE]
Copy OK

Track 10

Filename C:\EACRips\FLAC\Disturbed – 2008 -Indestructible\10 – Criminal.wav

Peak level 100.0 %
Track quality 100.0 %
Test CRC 233C031E
Copy CRC 233C031E
Accurately ripped (confidence 103) [98CACED7]
Copy OK

Track 11

Filename C:\EACRips\FLAC\Disturbed – 2008 -Indestructible\11 – Divide.wav

Peak level 100.0 %
Track quality 100.0 %
Test CRC 40F567A5
Copy CRC 40F567A5
Accurately ripped (confidence 103) [91C3B1C0]
Copy OK

Track 12

Filename C:\EACRips\FLAC\Disturbed – 2008 -Indestructible\12 – Façade.wav

Peak level 100.0 %
Track quality 100.0 %
Test CRC D58179B0
Copy CRC D58179B0
Accurately ripped (confidence 101) [EB980500]
Copy OK

All tracks accurately ripped

No errors occurred

End of status report

REM GENRE “Alternative Metal”
REM DATE 2008
PERFORMER “Disturbed”
TITLE “Indestructible”
REM DISCNUMBER 1
REM TOTALDISCS 1
FILE “01. Indestructible.m4a” WAVE
TRACK 01 AUDIO
TITLE “Indestructible”
PERFORMER “Disturbed”
INDEX 01 00:00:00
FILE “02. Inside the Fire.m4a” WAVE
TRACK 02 AUDIO
TITLE “Inside the Fire”
PERFORMER “Disturbed”
INDEX 01 00:00:00
FILE “03. Deceiver.m4a” WAVE
TRACK 03 AUDIO
TITLE “Deceiver”
PERFORMER “Disturbed”
INDEX 01 00:00:00
FILE “04. The Night.m4a” WAVE
TRACK 04 AUDIO
TITLE “The Night”
PERFORMER “Disturbed”
INDEX 01 00:00:00
FILE “05. Perfect Insanity.m4a” WAVE
TRACK 05 AUDIO
TITLE “Perfect Insanity”
PERFORMER “Disturbed”
INDEX 01 00:00:00
FILE “06. Haunted.m4a” WAVE
TRACK 06 AUDIO
TITLE “Haunted”
PERFORMER “Disturbed”
INDEX 01 00:00:00
FILE “07. Enough.m4a” WAVE
TRACK 07 AUDIO
TITLE “Enough”
PERFORMER “Disturbed”
INDEX 01 00:00:00
FILE “08. The Curse.m4a” WAVE
TRACK 08 AUDIO
TITLE “The Curse”
PERFORMER “Disturbed”
INDEX 01 00:00:00
FILE “09. Torn.m4a” WAVE
TRACK 09 AUDIO
TITLE “Torn”
PERFORMER “Disturbed”
INDEX 01 00:00:00
FILE “10. Criminal.m4a” WAVE
TRACK 10 AUDIO
TITLE “Criminal”
PERFORMER “Disturbed”
INDEX 01 00:00:00
FILE “11. Divide.m4a” WAVE
TRACK 11 AUDIO
TITLE “Divide”
PERFORMER “Disturbed”
INDEX 01 00:00:00
FILE “12. Facade.m4a” WAVE
TRACK 12 AUDIO
TITLE “Facade”
PERFORMER “Disturbed”
INDEX 01 00:00:00


Spread the Download

Leave a Reply

Your email address will not be published. Required fields are marked *

Enter the text from the image below
 

This site uses Akismet to reduce spam. Learn how your comment data is processed.