Disturbed – Immortalized




Artist: Disturbed
Year: 2015
Genre: Metal
Notes: Discogs
Add. Notes:
Encoder: FLAC
Bitrate: ~1000 kBit/s (44.1 kHz/16 Bit/s)
Bin/Cue incl.: Yes
Size: 386,61 MB
Password: “slam” (without ” “)


http://www.share-online.biz/dl/0JIQDVRPJV

https://rapidgator.net/file/264016dbf1e4e2bd6545051e755ec53e

https://uploadbyte.com/cvb0g8yof5o1

https://uploadever.com/ombfa5myh1l7

https://justupload.io/1pjd8dleabrk

Tracklist:

1 - The Eye Of The Storm - 1:20
2 - Immortalized - 4:17
3 - The Vengeful One - 4:11
4 - Open Your Eyes - 3:57
5 - The Light - 4:18
6 - What Are You Waiting For - 4:03
7 - You're Mine - 4:55
8 - Who - 4:46
9 - Save Our Last Goodbye - 4:59
10 - Fire It Up - 4:05
11 - The Sound Of Silence - 4:08
12 - Never Wrong - 3:33
13 - Who Taught You How To Hate - 4:56

EAC-Log, CUE-Sheed & NFO:

Click to open spoiler
Exact Audio Copy V1.1 from 23. June 2015

EAC extraction logfile from 5. October 2015, 20:43

Disturbed / Immortalized

Used drive : TSSTcorpBDDVDW SN-506BB Adapter: 1 ID: 0

Read mode : Secure
Utilize accurate stream : Yes
Defeat audio cache : Yes
Make use of C2 pointers : No

Read offset correction : 6
Overread into Lead-In and Lead-Out : No
Fill up missing offset samples with silence : Yes
Delete leading and trailing silent blocks : No
Null samples used in CRC calculations : Yes
Used interface : Native Win32 interface for Win NT & 2000
Gap handling : Appended to previous track

Used output format : User Defined Encoder
Selected bitrate : 1024 kBit/s
Quality : High
Add ID3 tag : No
Command line compressor : C:\Program Files (x86)\Exact Audio Copy\FLAC\FLAC.EXE
Additional command line options : -8 -V -T “ARTIST=%artist%” -T “TITLE=%title%” -T “ALBUM=%albumtitle%” -T “DATE=%year%” -T “TRACKNUMBER=%tracknr%” -T “GENRE=%genre%” -T “PERFORMER=%albuminterpret%” -T “COMPOSER=%composer%” %haslyrics%–tag-from-file=LYRICS=”%lyricsfile%”%haslyrics% -T “ALBUMARTIST=%albumartist%” -T “DISCNUMBER=%cdnumber%” -T “TOTALDISCS=%totalcds%” -T “TOTALTRACKS=%numtracks%” -T “COMMENT=%comment%” %source% -o %dest%

TOC of the extracted CD

Track | Start | Length | Start sector | End sector
———————————————————
1 | 0:00.00 | 1:20.42 | 0 | 6041
2 | 1:20.42 | 4:17.61 | 6042 | 25377
3 | 5:38.28 | 4:11.73 | 25378 | 44275
4 | 9:50.26 | 3:57.26 | 44276 | 62076
5 | 13:47.52 | 4:16.64 | 62077 | 81340
6 | 18:04.41 | 4:03.54 | 81341 | 99619
7 | 22:08.20 | 4:55.54 | 99620 | 121798
8 | 27:03.74 | 4:46.41 | 121799 | 143289
9 | 31:50.40 | 4:59.44 | 143290 | 165758
10 | 36:50.09 | 4:05.65 | 165759 | 184198
11 | 40:55.74 | 4:08.35 | 184199 | 202833
12 | 45:04.34 | 3:33.04 | 202834 | 218812
13 | 48:37.38 | 4:56.66 | 218813 | 241078

Track 1

Filename C:\EACRips\01. The Eye Of The Storm.wav

Pre-gap length 0:00:02.00

Peak level 96.7 %
Extraction speed 0.8 X
Track quality 100.0 %
Test CRC E4BAC44F
Copy CRC E4BAC44F
Track not present in AccurateRip database
Copy OK

Track 2

Filename C:\EACRips\02. Immortalized.wav

Peak level 100.0 %
Extraction speed 1.2 X
Track quality 100.0 %
Test CRC FFE6B56B
Copy CRC FFE6B56B
Track not present in AccurateRip database
Copy OK

Track 3

Filename C:\EACRips\03. The Vengeful One.wav

Peak level 100.0 %
Extraction speed 1.1 X
Track quality 99.9 %
Test CRC FDA675AD
Copy CRC FDA675AD
Track not present in AccurateRip database
Copy OK

Track 4

Filename C:\EACRips\04. Open Your Eyes.wav

Peak level 100.0 %
Extraction speed 1.2 X
Track quality 99.9 %
Test CRC BFC9175F
Copy CRC BFC9175F
Track not present in AccurateRip database
Copy OK

Track 5

Filename C:\EACRips\05. The Light.wav

Peak level 100.0 %
Extraction speed 1.5 X
Track quality 100.0 %
Test CRC F2F50DF0
Copy CRC F2F50DF0
Track not present in AccurateRip database
Copy OK

Track 6

Filename C:\EACRips\06. What Are You Waiting For.wav

Peak level 100.0 %
Extraction speed 1.6 X
Track quality 100.0 %
Test CRC 04CE277D
Copy CRC 04CE277D
Track not present in AccurateRip database
Copy OK

Track 7

Filename C:\EACRips\07. You’re Mine.wav

Peak level 100.0 %
Extraction speed 1.7 X
Track quality 100.0 %
Test CRC A38820AF
Copy CRC A38820AF
Track not present in AccurateRip database
Copy OK

Track 8

Filename C:\EACRips\08. Who.wav

Peak level 100.0 %
Extraction speed 1.8 X
Track quality 100.0 %
Test CRC E79838D9
Copy CRC E79838D9
Track not present in AccurateRip database
Copy OK

Track 9

Filename C:\EACRips\09. Save Our Last Goodbye.wav

Peak level 100.0 %
Extraction speed 1.9 X
Track quality 100.0 %
Test CRC 07C2FC64
Copy CRC 07C2FC64
Track not present in AccurateRip database
Copy OK

Track 10

Filename C:\EACRips\10. Fire It Up.wav

Peak level 100.0 %
Extraction speed 2.0 X
Track quality 100.0 %
Test CRC 239E30ED
Copy CRC 239E30ED
Track not present in AccurateRip database
Copy OK

Track 11

Filename C:\EACRips\11. The Sound Of Silence.wav

Peak level 98.4 %
Extraction speed 2.1 X
Track quality 100.0 %
Test CRC DD83BE50
Copy CRC DD83BE50
Track not present in AccurateRip database
Copy OK

Track 12

Filename C:\EACRips\12. Never Wrong.wav

Peak level 100.0 %
Extraction speed 2.1 X
Track quality 100.0 %
Test CRC 5B1B6AC9
Copy CRC 5B1B6AC9
Track not present in AccurateRip database
Copy OK

Track 13

Filename C:\EACRips\13. Who Taught You How To Hate.wav

Peak level 100.0 %
Extraction speed 2.3 X
Track quality 100.0 %
Test CRC BD6E70B4
Copy CRC BD6E70B4
Track not present in AccurateRip database
Copy OK

None of the tracks are present in the AccurateRip database

No errors occurred

End of status report

—- CUETools DB Plugin V2.1.6

[CTDB TOCID: JYYg1PoNHSYBXimyz2vs2l5dWgo-] found
Submit result: JYYg1PoNHSYBXimyz2vs2l5dWgo- has been confirmed
Track | CTDB Status
1 | (44/44) Accurately ripped
2 | (44/44) Accurately ripped
3 | (44/44) Accurately ripped
4 | (44/44) Accurately ripped
5 | (44/44) Accurately ripped
6 | (44/44) Accurately ripped
7 | (44/44) Accurately ripped
8 | (43/44) Accurately ripped
9 | (44/44) Accurately ripped
10 | (44/44) Accurately ripped
11 | (44/44) Accurately ripped
12 | (43/44) Accurately ripped
13 | (44/44) Accurately ripped

==== Log checksum E5D786560FAF35F76880DCBA14674793FFD9A7AD0BB9FD4CD093FE0091BC50FA ====

REM GENRE Rock
REM DATE 2015
REM DISCID A40C8E0D
REM COMMENT “ExactAudioCopy v1.1”
CATALOG 0093624926320
PERFORMER “Disturbed”
TITLE “Immortalized”
FILE “01. The Eye Of The Storm.wav” WAVE
TRACK 01 AUDIO
TITLE “The Eye Of The Storm”
PERFORMER “Disturbed”
ISRC USRE11500170
INDEX 01 00:00:00
FILE “02. Immortalized.wav” WAVE
TRACK 02 AUDIO
TITLE “Immortalized”
PERFORMER “Disturbed”
ISRC USRE11500171
INDEX 01 00:00:00
FILE “03. The Vengeful One.wav” WAVE
TRACK 03 AUDIO
TITLE “The Vengeful One”
PERFORMER “Disturbed”
ISRC USRE11500172
INDEX 01 00:00:00
FILE “04. Open Your Eyes.wav” WAVE
TRACK 04 AUDIO
TITLE “Open Your Eyes”
PERFORMER “Disturbed”
ISRC USRE11500173
INDEX 01 00:00:00
FILE “05. The Light.wav” WAVE
TRACK 05 AUDIO
TITLE “The Light”
PERFORMER “Disturbed”
ISRC USRE11500174
INDEX 01 00:00:00
FILE “06. What Are You Waiting For.wav” WAVE
TRACK 06 AUDIO
TITLE “What Are You Waiting For”
PERFORMER “Disturbed”
ISRC USRE11500175
INDEX 01 00:00:00
FILE “07. You’re Mine.wav” WAVE
TRACK 07 AUDIO
TITLE “You’re Mine”
PERFORMER “Disturbed”
ISRC USRE11500176
INDEX 01 00:00:00
FILE “08. Who.wav” WAVE
TRACK 08 AUDIO
TITLE “Who”
PERFORMER “Disturbed”
ISRC USRE11500177
INDEX 01 00:00:00
FILE “09. Save Our Last Goodbye.wav” WAVE
TRACK 09 AUDIO
TITLE “Save Our Last Goodbye”
PERFORMER “Disturbed”
ISRC USRE11500178
INDEX 01 00:00:00
FILE “10. Fire It Up.wav” WAVE
TRACK 10 AUDIO
TITLE “Fire It Up”
PERFORMER “Disturbed”
ISRC USRE11500179
INDEX 01 00:00:00
FILE “11. The Sound Of Silence.wav” WAVE
TRACK 11 AUDIO
TITLE “The Sound Of Silence”
PERFORMER “Disturbed”
ISRC USRE11500180
INDEX 01 00:00:00
FILE “12. Never Wrong.wav” WAVE
TRACK 12 AUDIO
TITLE “Never Wrong”
PERFORMER “Disturbed”
ISRC USRE11500181
INDEX 01 00:00:00
FILE “13. Who Taught You How To Hate.wav” WAVE
TRACK 13 AUDIO
TITLE “Who Taught You How To Hate”
PERFORMER “Disturbed”
ISRC USRE11500182
INDEX 01 00:00:00

Leave a Reply

Your email address will not be published. Required fields are marked *

This site uses Akismet to reduce spam. Learn how your comment data is processed.