Disturbed – Believe




Artist: Disturbed
Year: 2002
Genre: Metal
Notes: Discogs
Add. Notes:
Cover incl.: No
Encoder: ALAC
Bitrate: ~1000 kBit/s (44.1 kHz/16 Bit/s)
Log & Cue incl.: Yes
Size: 335,7 MB
Password: “slam” (without ” “)


All Downloads/Hosters are compatible

Download 1
KatFile.com
FileFactory.com
Rapidgator.net
Turbobit.net
Download 2
KatFile.com
FileFactory.com
Rapidgator.net
Turbobit.net

Tracklist:

1 - Prayer - 3:41
2 - Liberate - 3:30
3 - Awaken - 4:29
4 - Believe - 4:27
5 - Remember - 4:11
6 - Intoxication - 3:14
7 - Rise - 3:57
8 - Mistress - 3:46
9 - Breathe - 4:21
10 - Bound - 3:53
11 - Devour - 3:52
12 - Darkness - 6:28

EAC-Log, CUE-Sheed & NFO:

Click to open spoiler
Exact Audio Copy V0.99 prebeta 5 from 4. May 2009

EAC extraction logfile from 7. June 2011, 18:12

Disturbed / Believe

Used drive : TSSTcorpCDDVDW TS-L633C Adapter: 1 ID: 0

Read mode : Secure
Utilize accurate stream : Yes
Defeat audio cache : Yes
Make use of C2 pointers : No

Read offset correction : 6
Overread into Lead-In and Lead-Out : No
Fill up missing offset samples with silence : Yes
Delete leading and trailing silent blocks : No
Null samples used in CRC calculations : Yes
Used interface : Native Win32 interface for Win NT & 2000

Used output format : Internal WAV Routines
Sample format : 44.100 Hz; 16 Bit; Stereo

TOC of the extracted CD

Track | Start | Length | Start sector | End sector
———————————————————
1 | 0:00.00 | 3:41.20 | 0 | 16594
2 | 3:41.20 | 3:29.72 | 16595 | 32341
3 | 7:11.17 | 4:29.15 | 32342 | 52531
4 | 11:40.32 | 4:27.45 | 52532 | 72601
5 | 16:08.02 | 4:11.23 | 72602 | 91449
6 | 20:19.25 | 3:14.00 | 91450 | 105999
7 | 23:33.25 | 3:57.00 | 106000 | 123774
8 | 27:30.25 | 3:46.50 | 123775 | 140774
9 | 31:17.00 | 4:21.20 | 140775 | 160369
10 | 35:38.20 | 3:53.00 | 160370 | 177844
11 | 39:31.20 | 3:52.35 | 177845 | 195279
12 | 43:23.55 | 3:56.45 | 195280 | 213024
13 | 49:52.25 | 12:02.34 | 224425 | 278608

Range status and errors

Selected range

Filename Z:\DISTURBED\2002 – Believe.wav

Peak level 100.0 %
Range quality 100.0 %
Test CRC F67F6156
Copy CRC F67F6156
Copy OK

No errors occurred

AccurateRip summary

Track 1 accurately ripped (confidence 84) [DD4A1478]
Track 2 accurately ripped (confidence 84) [03A1BBAF]
Track 3 accurately ripped (confidence 84) [3204E771]
Track 4 accurately ripped (confidence 83) [FA2409BD]
Track 5 accurately ripped (confidence 84) [B251A300]
Track 6 accurately ripped (confidence 84) [DA2228A6]
Track 7 accurately ripped (confidence 83) [8785C3F4]
Track 8 accurately ripped (confidence 84) [2B5B60F8]
Track 9 accurately ripped (confidence 84) [C4826B68]
Track 10 accurately ripped (confidence 84) [4D7AC2AA]
Track 11 accurately ripped (confidence 84) [33A867D8]
Track 12 accurately ripped (confidence 82) [58D00E4F]

All tracks accurately ripped

End of status report

REM GENRE “Alternative Metal”
REM DATE 2002
PERFORMER “Disturbed”
TITLE “Believe”
REM DISCNUMBER 1
REM TOTALDISCS 1
FILE “01. Prayer.m4a” WAVE
TRACK 01 AUDIO
TITLE “Prayer”
ISRC USRE10200787
INDEX 01 00:00:00
TRACK 02 AUDIO
TITLE “Liberate”
ISRC USRE10200796
INDEX 00 03:39:50
FILE “02. Liberate.m4a” WAVE
INDEX 01 00:00:00
TRACK 03 AUDIO
TITLE “Awaken”
ISRC USRE10200797
INDEX 00 03:26:67
FILE “03. Awaken.m4a” WAVE
INDEX 01 00:00:00
FILE “04. Believe.m4a” WAVE
TRACK 04 AUDIO
TITLE “Believe”
ISRC USRE10200798
INDEX 01 00:00:00
FILE “05. Remember.m4a” WAVE
TRACK 05 AUDIO
TITLE “Remember”
ISRC USRE10200799
INDEX 01 00:00:00
TRACK 06 AUDIO
TITLE “Intoxication”
ISRC USRE10200800
INDEX 00 04:08:10
FILE “06. Intoxication.m4a” WAVE
INDEX 01 00:00:00
TRACK 07 AUDIO
TITLE “Rise”
ISRC USRE10200801
INDEX 00 03:11:33
FILE “07. Rise.m4a” WAVE
INDEX 01 00:00:00
TRACK 08 AUDIO
TITLE “Mistress”
ISRC USRE10200802
INDEX 00 03:55:62
FILE “08. Mistress.m4a” WAVE
INDEX 01 00:00:00
TRACK 09 AUDIO
TITLE “Breathe”
ISRC USRE10200803
INDEX 00 03:45:07
FILE “09. Breathe.m4a” WAVE
INDEX 01 00:00:00
TRACK 10 AUDIO
TITLE “Bound”
ISRC USRE10200804
INDEX 00 04:19:37
FILE “10. Bound.m4a” WAVE
INDEX 01 00:00:00
TRACK 11 AUDIO
TITLE “Devour”
ISRC USRE10200805
INDEX 00 03:51:32
FILE “11. Devour.m4a” WAVE
INDEX 01 00:00:00
TRACK 12 AUDIO
TITLE “Darkness”
ISRC USRE10200806
INDEX 00 03:46:65
FILE “12. Darkness.m4a” WAVE
INDEX 01 00:00:00


Leave a Reply

Your email address will not be published. Required fields are marked *

This site uses Akismet to reduce spam. Learn how your comment data is processed.