Dire Straits – Sultans Of Swing (The Very Best Of Dire Straits)




[Total: 0    Average: 0/5]

Artist: Dire Straits
Year: 1998
Genre: Rock
Notes: Discogs
Add. Notes:
Cover incl.: Yes
Encoder: FLAC
Bitrate: ~900 kBit/s (44.1 kHz/16 Bit/s)
Log & Cue incl.: Yes
Size: 600,89 MB
Password: “slam” (without ” “)


All Downloads/Hosters are compatible

Download 1
Share-online.biz
KatFile.com
Rapidgator.net
Mexa.sh
Download 2
Share-online.biz
KatFile.com
Rapidgator.net
Mexa.sh

Tracklist:

1 - Sultans Of Swing - 5:45
2 - Lady Writer - 3:39
3 - Romeo And Juliet - 5:51
4 - Tunnel Of Love - 8:07
5 - Private Investigations - 5:45
6 - Twisting By The Pool - 3:30
7 - Love Over Gold (Live) - 3:27
8 - So Far Away - 4:02
9 - Money For Nothing - 4:05
10 - Brothers In Arms - 4:56
11 - Walk Of Life - 4:07
12 - Calling Elvis - 4:37
13 - Heavy Fuel - 4:54
14 - On Every Street - 4:34
15 - Your Latest Trick (Live) - 6:29
16 - Local Hero / Wild Theme (Live) - 4:19

EAC-Log, CUE-Sheed & NFO:

Click to open spoiler
Exact Audio Copy V1.3 from 2. September 2016

EAC extraction logfile from 25. January 2019, 15:50

DIRE STRAITS / The Very Best Of Dire Straits

Used drive : HL-DT-STDVDRAM GUE1N Adapter: 1 ID: 0

Read mode : Secure
Utilize accurate stream : Yes
Defeat audio cache : Yes
Make use of C2 pointers : No

Read offset correction : 6
Overread into Lead-In and Lead-Out : No
Fill up missing offset samples with silence : Yes
Delete leading and trailing silent blocks : No
Null samples used in CRC calculations : Yes
Used interface : Native Win32 interface for Win NT & 2000

Used output format : User Defined Encoder
Selected bitrate : 1024 kBit/s
Quality : High
Add ID3 tag : No
Command line compressor : C:\Program Files (x86)\Exact Audio Copy\Flac\flac.exe
Additional command line options : -V -8 -T “Date=%year%” -T “Genre=%genre%” %source%

TOC of the extracted CD

Track | Start | Length | Start sector | End sector
———————————————————
1 | 0:00.00 | 5:50.32 | 0 | 26281
2 | 5:50.32 | 3:49.03 | 26282 | 43459
3 | 9:39.35 | 6:05.00 | 43460 | 70834
4 | 15:44.35 | 8:14.40 | 70835 | 107924
5 | 23:59.00 | 5:54.32 | 107925 | 134506
6 | 29:53.32 | 3:36.05 | 134507 | 150711
7 | 33:29.37 | 3:40.58 | 150712 | 167269
8 | 37:10.20 | 4:03.35 | 167270 | 185529
9 | 41:13.55 | 4:09.52 | 185530 | 204256
10 | 45:23.32 | 4:55.08 | 204257 | 226389
11 | 50:18.40 | 4:12.35 | 226390 | 245324
12 | 54:31.00 | 4:41.42 | 245325 | 266441
13 | 59:12.42 | 5:01.58 | 266442 | 289074
14 | 64:14.25 | 4:39.15 | 289075 | 310014
15 | 68:53.40 | 5:41.47 | 310015 | 335636
16 | 74:35.12 | 4:24.03 | 335637 | 355439

Range status and errors

Selected range

Filename X:\Test\DIRE STRAITS – The Very Best Of Dire Straits.wav

Peak level 96.4 %
Extraction speed 2.3 X
Range quality 100.0 %
Test CRC C505A847
Copy CRC C505A847
Copy OK

No errors occurred

AccurateRip summary

Track 1 accurately ripped (confidence 200) [ADF22FE0] (AR v2)
Track 2 accurately ripped (confidence 200) [B8A1CBE3] (AR v2)
Track 3 accurately ripped (confidence 200) [BDD5EF65] (AR v2)
Track 4 accurately ripped (confidence 200) [79B45054] (AR v2)
Track 5 accurately ripped (confidence 200) [99C9B088] (AR v2)
Track 6 accurately ripped (confidence 200) [E657ECB6] (AR v2)
Track 7 accurately ripped (confidence 200) [A7BD0C24] (AR v2)
Track 8 accurately ripped (confidence 200) [9CF3C8A5] (AR v2)
Track 9 accurately ripped (confidence 200) [96240B8F] (AR v2)
Track 10 accurately ripped (confidence 200) [FDAB62ED] (AR v2)
Track 11 accurately ripped (confidence 200) [31A69537] (AR v2)
Track 12 accurately ripped (confidence 200) [808245D8] (AR v2)
Track 13 accurately ripped (confidence 200) [BF750BD3] (AR v2)
Track 14 accurately ripped (confidence 200) [1F0CC90F] (AR v2)
Track 15 accurately ripped (confidence 200) [98635782] (AR v2)
Track 16 accurately ripped (confidence 200) [114463E0] (AR v2)

All tracks accurately ripped

End of status report

—- CUETools DB Plugin V2.1.6

[CTDB TOCID: fHF7g6maq.U7v86k3X.egu5urBA-] found
Submit result: already submitted
Track | CTDB Status
1 | (1663/1709) Accurately ripped
2 | (1673/1709) Accurately ripped
3 | (1676/1709) Accurately ripped
4 | (1670/1709) Accurately ripped
5 | (1680/1709) Accurately ripped
6 | (1674/1709) Accurately ripped
7 | (1673/1709) Accurately ripped
8 | (1668/1709) Accurately ripped
9 | (1677/1709) Accurately ripped
10 | (1675/1709) Accurately ripped
11 | (1669/1709) Accurately ripped
12 | (1673/1709) Accurately ripped
13 | (1668/1709) Accurately ripped
14 | (1668/1709) Accurately ripped
15 | (1658/1709) Accurately ripped, or (2/1709) differs in 3936 samples @01:26:25-01:26:26,01:45:05-01:45:06,01:49:30-01:49:31,01:52:00-01:52:01,01:52:43-01:52:44,01:52:65-01:52:66,01:54:45,01:54:66-01:54:67,02:00:49-02:00:50,02:03:63-02:03:64,02:04:10,02:04:31-02:04:32,02:11:27,02:12:60-02:12:61,02:13:72-02:13:73,02:15:30-02:15:31,02:15:74-02:16:00,02:16:42-02:16:43,02:17:11,02:17:32-02:17:33,02:22:05,02:22:48-02:22:49,02:24:07,02:24:28-02:24:29,02:25:40-02:25:41,02:26:52-02:26:53,02:26:74-02:27:00,02:27:42-02:27:43,02:28:11,02:28:32-02:28:33,02:28:54-02:28:55,02:29:66-02:29:67,02:53:06-02:53:07,02:55:30-02:55:31,02:55:52-02:55:53,02:57:54-02:57:55,02:58:01-02:58:02,02:58:23-02:58:24,02:58:67,02:59:35-02:59:36,03:03:40-03:03:41,03:04:74-03:05:00,03:05:65,03:06:33-03:06:34,03:07:24,03:07:45-03:07:46,03:07:67-03:07:68,03:08:14-03:08:15,03:08:58,03:09:05,03:10:17,03:10:39,03:10:60-03:10:61,03:11:07,03:11:29-03:11:30,03:13:32,03:13:54,03:14:00-03:14:01,03:14:22-03:14:23,03:14:44-03:14:45,03:14:66,03:15:56-03:15:57,03:16:68-03:16:69,03:17:37-03:17:38,03:17:59,03:18:28,03:19:18-03:19:19,03:19:62,03:20:09,03:22:11-03:22:12,03:22:33-03:22:34,03:23:67-03:23:68,03:25:27,03:30:23-03:30:24,03:30:45,03:51:23,04:36:47-04:36:48,04:38:51-04:38:52,04:52:57-04:52:58,04:53:48-04:53:49
16 | (1624/1709) Accurately ripped, or (2/1709) differs in 38 samples @02:27:05

==== Log checksum FAD426B92711306C51ECFFD51810A92DE06AA0AAF236B39F455F96C491343A7B ====

REM GENRE Rock
REM DATE 1998
REM DISCID DA128310
REM COMMENT “ExactAudioCopy v1.3”
CATALOG 0000000000000
PERFORMER “Dire Straits”
TITLE “Sultans Of Swing (The Very Best Of Dire Straits)”
FILE “Dire Straits – Sultans Of Swing (The Very Best Of Dire Straits).flac” WAVE
TRACK 01 AUDIO
TITLE “Sultans Of Swing”
PERFORMER “Dire Straits”
ISRC GBFO89601041
INDEX 01 00:00:00
TRACK 02 AUDIO
TITLE “Lady Writer”
PERFORMER “Dire Straits”
ISRC GBF087900662
INDEX 00 05:46:47
INDEX 01 05:50:32
TRACK 03 AUDIO
TITLE “Romeo And Juliet”
PERFORMER “Dire Straits”
ISRC GBF088000675
INDEX 00 09:36:42
INDEX 01 09:39:35
TRACK 04 AUDIO
TITLE “Tunnel Of Love”
PERFORMER “Dire Straits”
ISRC GBF088000674
INDEX 00 15:42:37
INDEX 01 15:44:35
TRACK 05 AUDIO
TITLE “Private Investigations”
PERFORMER “Dire Straits”
ISRC GBF088200888
INDEX 00 23:55:30
INDEX 01 23:59:00
TRACK 06 AUDIO
TITLE “Twisting By The Pool”
PERFORMER “Dire Straits”
ISRC GBF087900668
INDEX 00 29:50:10
INDEX 01 29:53:32
TRACK 07 AUDIO
TITLE “Love Over Gold (Live)”
PERFORMER “Dire Straits”
ISRC GBF088490008
INDEX 00 33:25:12
INDEX 01 33:29:37
TRACK 08 AUDIO
TITLE “So Far Away”
PERFORMER “Dire Straits”
ISRC GBF088590114
INDEX 00 37:05:62
INDEX 01 37:10:20
TRACK 09 AUDIO
TITLE “Money For Nothing”
PERFORMER “Dire Straits”
ISRC GBF088590115
INDEX 00 41:10:20
INDEX 01 41:13:55
TRACK 10 AUDIO
TITLE “Brothers In Arms”
PERFORMER “Dire Straits”
ISRC GBF088590116
INDEX 00 45:20:42
INDEX 01 45:23:32
TRACK 11 AUDIO
TITLE “Walk Of Life”
PERFORMER “Dire Straits”
ISRC GBF088500675
INDEX 00 50:14:15
INDEX 01 50:18:40
TRACK 12 AUDIO
TITLE “Calling Elvis”
PERFORMER “Dire Straits”
ISRC GBF089190324
INDEX 00 54:27:62
INDEX 01 54:31:00
TRACK 13 AUDIO
TITLE “Heavy Fuel”
PERFORMER “Dire Straits”
ISRC GBF089601057
INDEX 00 59:08:52
INDEX 01 59:12:42
TRACK 14 AUDIO
TITLE “On Every Street”
PERFORMER “Dire Straits”
ISRC GBF089190325
INDEX 00 64:08:12
INDEX 01 64:14:25
TRACK 15 AUDIO
TITLE “Your Latest Trick (Live)”
PERFORMER “Dire Straits”
ISRC GBFO88590004
INDEX 00 68:50:12
INDEX 01 68:53:40
TRACK 16 AUDIO
TITLE “Local Hero / Wild Theme (Live)”
PERFORMER “Dire Straits”
ISRC GBF089390195
INDEX 00 74:31:69
INDEX 01 74:35:12


Spread the Download

Leave a Reply

Your email address will not be published. Required fields are marked *

Enter the text from the image below
 

This site uses Akismet to reduce spam. Learn how your comment data is processed.