Dire Straits – Sultans Of Swing (The Very Best Of Dire Straits) (Limited Edition)




[Total: 0    Average: 0/5]

Artist: Dire Straits
Year: 1998
Genre: Rock
Notes: Discogs
Add. Notes: Limited Edition
Cover incl.: Yes
Encoder: FLAC
Bitrate: ~900 kBit/s (44.1 kHz/16 Bit/s)
Log & Cue incl.: Yes
Size: 1010 MB
Password: “slam” (without ” “)


All Downloads/Hosters are compatible

Download 1
KatFile.com
Turbobit.net
FileFactory.com
Rapidgator.net
Download 2
KatFile.com
Turbobit.net
FileFactory.com
Rapidgator.net

Tracklist:

1-1. Sultans Of Swing  5:45
1-2. Lady Writer  3:39
1-3. Romeo And Juliet  5:51
1-4. Tunnel Of Love  8:07
1-5. Private Investigations  5:45
1-6. Twisting By The Pool  3:30
1-7. Love Over Gold (Live)  3:27
1-8. So Far Away  4:02
1-9. Money For Nothing  4:05
1-10. Brothers In Arms  4:56
1-11. Walk Of Life  4:07
1-12. Calling Elvis  4:37
1-13. Heavy Fuel  4:54
1-14. On Every Street  4:34
1-15. Your Latest Trick (Live)  6:29
1-16. Local Hero/Wild Theme (Live)  
4:19

Mark Knopfler Recorded Live At The 
Royal Albert Hall, 
London
2-1. Calling Elvis  9:07
2-2. Walk Of Life  5:28
2-3. Last Exit To Brooklyn  2:23
2-4. Romeo And Juliet  7:30
2-5. Sultans Of Swing  13:14
2-6. Brothers In Arms  8:54
2-7. Money For Nothing  6:37

EAC-Log, CUE-Sheed & NFO:

Click to open spoiler
Exact Audio Copy V1.0 beta 3 from 29. August 2011

EAC extraction logfile from 12. May 2013, 14:42

Dire Straits / Sultans Of Swing – The Very Best Of (Limited Edition)

Used drive : PLEXTOR DVDR PX-716A Adapter: 0 ID: 0

Read mode : Secure
Utilize accurate stream : Yes
Defeat audio cache : Yes
Make use of C2 pointers : No

Read offset correction : 30
Overread into Lead-In and Lead-Out : Yes
Fill up missing offset samples with silence : Yes
Delete leading and trailing silent blocks : No
Null samples used in CRC calculations : Yes
Used interface : Native Win32 interface for Win NT & 2000

Used output format : User Defined Encoder
Selected bitrate : 896 kBit/s
Quality : High
Add ID3 tag : No
Command line compressor : C:\Program Files (x86)\FLAC\flac.exe
Additional command line options : -V -8 -T “Date=%year%” -T “Genre=%genre%” %source%

TOC of the extracted CD

Track | Start | Length | Start sector | End sector
———————————————————
1 | 0:00.00 | 9:05.37 | 0 | 40911
2 | 9:05.37 | 5:28.63 | 40912 | 65574
3 | 14:34.25 | 2:23.07 | 65575 | 76306
4 | 16:57.32 | 7:30.65 | 76307 | 110121
5 | 24:28.22 | 13:14.28 | 110122 | 169699
6 | 37:42.50 | 8:54.52 | 169700 | 209801
7 | 46:37.27 | 6:37.20 | 209802 | 239596

Range status and errors

Selected range

Filename E:\Youtracker\Dire Straits – Collection\Compilations & Live\1998 Dire Straits – Sultans Of Swing (Vertigo 538 003-2 Very Best 2HDCD)\CD2\Dire Straits – Sultans Of Swing CD2.wav

Peak level 96.4 %
Extraction speed 1.5 X
Range quality 100.0 %
Test CRC F353A442
Copy CRC F353A442
Copy OK

No errors occurred

AccurateRip summary

Track 1 accurately ripped (confidence 4) [5B4D1744] (AR v2)
Track 2 accurately ripped (confidence 4) [E94E3151] (AR v2)
Track 3 accurately ripped (confidence 4) [F05BFAD9] (AR v2)
Track 4 accurately ripped (confidence 4) [EAFB1B18] (AR v2)
Track 5 accurately ripped (confidence 4) [C896AD7B] (AR v2)
Track 6 accurately ripped (confidence 4) [49F074B3] (AR v2)
Track 7 accurately ripped (confidence 4) [69D624E6] (AR v2)

All tracks accurately ripped

End of status report

—- CUETools DB Plugin V2.1.5

[CTDB TOCID: X8zcioEclmtpf2kUsLWNJCkpoDg-] found
Submit result: X8zcioEclmtpf2kUsLWNJCkpoDg- has been confirmed
Track | CTDB Status
1 | ( 95/128) Accurately ripped, or (16/128) differs in 1 samples @00:00:28, or (13/128) differs in 1 samples @00:00:28
2 | (127/128) Accurately ripped
3 | (127/128) Accurately ripped
4 | (128/128) Accurately ripped
5 | (111/128) Accurately ripped, or (16/128) differs in 283 samples @11:39:66-11:39:67,11:41:35,11:43:38,11:44:48,11:45:24,11:48:71,11:56:16,11:56:66-11:56:67,11:59:12,11:59:30,12:03:19-12:03:20,12:04:12-12:04:13,12:10:06
6 | (128/128) Accurately ripped
7 | (127/128) Accurately ripped

==== Log checksum 58546DACC096C2E6F3F94CCE4562B156EE5B1A713649626854E5191BF2226B3B ====

Exact Audio Copy V1.0 beta 3 from 29. August 2011

EAC extraction logfile from 12. May 2013, 13:17

Dire Straits / Sultans of Swing

Used drive : PLEXTOR DVDR PX-716A Adapter: 0 ID: 0

Read mode : Secure
Utilize accurate stream : Yes
Defeat audio cache : Yes
Make use of C2 pointers : No

Read offset correction : 30
Overread into Lead-In and Lead-Out : Yes
Fill up missing offset samples with silence : Yes
Delete leading and trailing silent blocks : No
Null samples used in CRC calculations : Yes
Used interface : Native Win32 interface for Win NT & 2000

Used output format : User Defined Encoder
Selected bitrate : 896 kBit/s
Quality : High
Add ID3 tag : No
Command line compressor : C:\Program Files (x86)\FLAC\flac.exe
Additional command line options : -V -8 -T “Date=%year%” -T “Genre=%genre%” %source%

TOC of the extracted CD

Track | Start | Length | Start sector | End sector
———————————————————
1 | 0:00.00 | 5:50.30 | 0 | 26279
2 | 5:50.30 | 3:49.02 | 26280 | 43456
3 | 9:39.32 | 6:05.00 | 43457 | 70831
4 | 15:44.32 | 8:14.40 | 70832 | 107921
5 | 23:58.72 | 5:54.33 | 107922 | 134504
6 | 29:53.30 | 3:36.05 | 134505 | 150709
7 | 33:29.35 | 3:40.57 | 150710 | 167266
8 | 37:10.17 | 4:03.35 | 167267 | 185526
9 | 41:13.52 | 4:09.53 | 185527 | 204254
10 | 45:23.30 | 4:55.07 | 204255 | 226386
11 | 50:18.37 | 4:12.35 | 226387 | 245321
12 | 54:30.72 | 4:41.43 | 245322 | 266439
13 | 59:12.40 | 5:01.57 | 266440 | 289071
14 | 64:14.22 | 4:39.15 | 289072 | 310011
15 | 68:53.37 | 5:41.48 | 310012 | 335634
16 | 74:35.10 | 4:24.02 | 335635 | 355436

Range status and errors

Selected range

Filename E:\Youtracker\Dire Straits – Collection\Compilations & Live\1998 Dire Straits – Sultans Of Swing (Vertigo 538 003-2 Very Best 2HDCD)\CD1\Dire Straits – Sultans of Swing CD1.wav

Peak level 96.4 %
Extraction speed 1.7 X
Range quality 100.0 %
Test CRC D223478F
Copy CRC D223478F
Copy OK

No errors occurred

AccurateRip summary

Track 1 accurately ripped (confidence 4) [30A626CD] (AR v2)
Track 2 accurately ripped (confidence 4) [068CDB7B] (AR v2)
Track 3 accurately ripped (confidence 4) [D1FBCC0E] (AR v2)
Track 4 accurately ripped (confidence 4) [7A2A856E] (AR v2)
Track 5 accurately ripped (confidence 4) [28E18B82] (AR v2)
Track 6 accurately ripped (confidence 4) [9D219013] (AR v2)
Track 7 accurately ripped (confidence 4) [F97616A0] (AR v2)
Track 8 accurately ripped (confidence 4) [A9BBA560] (AR v2)
Track 9 accurately ripped (confidence 4) [0F34134E] (AR v2)
Track 10 accurately ripped (confidence 4) [214AB0E5] (AR v2)
Track 11 accurately ripped (confidence 4) [D4D8881E] (AR v2)
Track 12 accurately ripped (confidence 4) [6D29444F] (AR v2)
Track 13 accurately ripped (confidence 4) [2E5A00A1] (AR v2)
Track 14 accurately ripped (confidence 4) [75CD4ACC] (AR v2)
Track 15 accurately ripped (confidence 4) [7BCE540C] (AR v2)
Track 16 accurately ripped (confidence 5) [2BE0F776] (AR v2)

All tracks accurately ripped

End of status report

—- CUETools DB Plugin V2.1.5

[CTDB TOCID: pQomXdXXzEQQvEPSAN5Djsutdxc-] found
Submit result: pQomXdXXzEQQvEPSAN5Djsutdxc- has been confirmed
Track | CTDB Status
1 | (200/209) Accurately ripped
2 | (158/209) Accurately ripped, or (41/209) differs in 20 samples @00:43:47-00:43:48
3 | (201/209) Accurately ripped
4 | (201/209) Accurately ripped
5 | (202/209) Accurately ripped
6 | (201/209) Accurately ripped
7 | (199/209) Accurately ripped
8 | (200/209) Accurately ripped
9 | (198/209) Accurately ripped
10 | (198/209) Accurately ripped
11 | (198/209) Accurately ripped
12 | (200/209) Accurately ripped
13 | (200/209) Accurately ripped
14 | (198/209) Accurately ripped
15 | (200/209) Accurately ripped
16 | (193/209) Accurately ripped

==== Log checksum 86EA7F91F191E178E7B36EB9EE607F48E7CBC1EA8E652864576141DC5C22C56F ====

REM GENRE Rock
REM DATE 1998
REM DISCID 670C7A07
REM COMMENT “ExactAudioCopy v1.0b3”
PERFORMER “Dire Straits”
TITLE “Sultans Of Swing (The Very Best Of Dire Straits) (Limited Edition Disc)”
FILE “Dire Straits – Sultans Of Swing (The Very Best Of Dire Straits) (Limited Edition Disc).flac” WAVE
TRACK 01 AUDIO
TITLE “Calling Elvis”
PERFORMER “Mark Knopfler”
INDEX 01 00:00:00
TRACK 02 AUDIO
TITLE “Walk Of Life”
PERFORMER “Mark Knopfler”
INDEX 01 09:05:37
TRACK 03 AUDIO
TITLE “Last Exit To Brooklyn”
PERFORMER “Mark Knopfler”
INDEX 01 14:34:25
TRACK 04 AUDIO
TITLE “Romeo And Juliet”
PERFORMER “Mark Knopfler”
INDEX 01 16:57:32
TRACK 05 AUDIO
TITLE “Sultans Of Swing”
PERFORMER “Mark Knopfler”
INDEX 01 24:28:22
TRACK 06 AUDIO
TITLE “Brothers In Arms”
PERFORMER “Mark Knopfler”
INDEX 01 37:42:50
TRACK 07 AUDIO
TITLE “Money For Nothing”
PERFORMER “Mark Knopfler”
INDEX 01 46:37:27

REM GENRE Rock
REM DATE 1998
REM DISCID D8128310
REM COMMENT “ExactAudioCopy v1.0b3”
PERFORMER “Dire Straits”
TITLE “Sultans Of Swing (The Very Best Of Dire Straits)”
FILE “Dire Straits – Sultans Of Swing (The Very Best Of Dire Straits).flac” WAVE
TRACK 01 AUDIO
TITLE “Sultans Of Swing”
PERFORMER “Dire Straits”
INDEX 01 00:00:00
TRACK 02 AUDIO
TITLE “Lady Writer”
PERFORMER “Dire Straits”
INDEX 00 05:46:45
INDEX 01 05:50:30
TRACK 03 AUDIO
TITLE “Romeo And Juliet”
PERFORMER “Dire Straits”
INDEX 00 09:36:40
INDEX 01 09:39:32
TRACK 04 AUDIO
TITLE “Tunnel Of Love”
PERFORMER “Dire Straits”
INDEX 00 15:42:35
INDEX 01 15:44:32
TRACK 05 AUDIO
TITLE “Private Investigations”
PERFORMER “Dire Straits”
INDEX 00 23:55:27
INDEX 01 23:58:72
TRACK 06 AUDIO
TITLE “Twisting By The Pool”
PERFORMER “Dire Straits”
INDEX 00 29:50:07
INDEX 01 29:53:30
TRACK 07 AUDIO
TITLE “Love Over Gold (Live)”
PERFORMER “Dire Straits”
INDEX 00 33:25:10
INDEX 01 33:29:35
TRACK 08 AUDIO
TITLE “So Far Away”
PERFORMER “Dire Straits”
INDEX 00 37:05:60
INDEX 01 37:10:17
TRACK 09 AUDIO
TITLE “Money For Nothing”
PERFORMER “Dire Straits”
INDEX 00 41:10:17
INDEX 01 41:13:52
TRACK 10 AUDIO
TITLE “Brothers In Arms”
PERFORMER “Dire Straits”
INDEX 00 45:20:40
INDEX 01 45:23:30
TRACK 11 AUDIO
TITLE “Walk Of Life”
PERFORMER “Dire Straits”
INDEX 00 50:14:12
INDEX 01 50:18:37
TRACK 12 AUDIO
TITLE “Calling Elvis”
PERFORMER “Dire Straits”
INDEX 00 54:27:62
INDEX 01 54:30:72
TRACK 13 AUDIO
TITLE “Heavy Fuel”
PERFORMER “Dire Straits”
INDEX 00 59:08:50
INDEX 01 59:12:40
TRACK 14 AUDIO
TITLE “On Every Street”
PERFORMER “Dire Straits”
INDEX 00 64:08:10
INDEX 01 64:14:22
TRACK 15 AUDIO
TITLE “Your Latest Trick (Live)”
PERFORMER “Dire Straits”
INDEX 00 68:50:10
INDEX 01 68:53:37
TRACK 16 AUDIO
TITLE “Local Hero / Wild Theme (Live)”
PERFORMER “Dire Straits”
INDEX 00 74:31:67
INDEX 01 74:35:10


Spread the Download

Leave a Reply

Your email address will not be published. Required fields are marked *

Enter the text from the image below
 

This site uses Akismet to reduce spam. Learn how your comment data is processed.