Dire Straits – Sultans Of Swing (The Very Best Of Dire Straits) (Japanese Edition)




No Cover available

Artist: Dire Straits
Year: 1998
Genre: Rock
Notes: Discogs
Add. Notes: Japanese Edition
Watch Songs on: YouTube
Cover incl.: Yes
Encoder: FLAC
Bitrate: ~900 kBit/s (44.1 kHz/16 Bit/s)
Log & Cue incl.: Yes/Yes
Size: 684 MB
Password: “slam” (without ” “)


All Downloads/Hosters are compatible

Download 1
KatFile.com
Turbobit.net
Rapidgator.net
FileFactory.com
Download 2
KatFile.com
Turbobit.net
Rapidgator.net
FileFactory.com

Tracklist:

1 Sultans Of Swing 5:50
2 Lady Writer 3:49
3 Romeo And Juliet 5:54
4 Tunnel Of Love 8:15
5 Private Investigations 5:54
6 Twisting By The Pool 3:36
7 Love Over Gold (Live) 3:41
8 So Far Away 4:03
9 Money For Nothing 4:10
10 Brothers In Arms 4:55
11 Walk Of Life 4:12
12 Calling Elvis 4:42
13 Heavy Fuel 5:02
14 On Every Street 4:39
15 Your Latest Trick (Live) 5:41
16 Local Hero / Wild Theme (Live) 4:25

EAC-Log, CUE-Sheed & NFO:

Click to open spoiler
Exact Audio Copy V1.3 from 2. September 2016

EAC extraction logfile from 21. July 2017, 14:14

Dire Straits / Sultans Of Swing – The Very Best Of DireStraits (SHM-CD UICY-25236)

Used drive : PIONEER DVD-RW DVR-218L Adapter: 1 ID: 0

Read mode : Secure
Utilize accurate stream : Yes
Defeat audio cache : Yes
Make use of C2 pointers : No

Read offset correction : 6
Overread into Lead-In and Lead-Out : No
Fill up missing offset samples with silence : Yes
Delete leading and trailing silent blocks : No
Null samples used in CRC calculations : Yes
Used interface : Native Win32 interface for Win NT & 2000

Used output format : User Defined Encoder
Selected bitrate : 896 kBit/s
Quality : High
Add ID3 tag : No
Command line compressor : C:\Program Files (x86)\Exact Audio Copy\Flac\flac.exe
Additional command line options : -V -7 -T “Genre=%genre%” -T “Artist=%artist%” -T “Title=%title%” -T “Album=%albumtitle%” -T “Date=%year%” -T “Tracknumber=%tracknr%” -T “Comment=%comment%” %source%

TOC of the extracted CD

Track | Start | Length | Start sector | End sector
———————————————————
1 | 0:00.00 | 5:50.30 | 0 | 26279
2 | 5:50.30 | 3:49.02 | 26280 | 43456
3 | 9:39.32 | 6:04.68 | 43457 | 70824
4 | 15:44.25 | 8:14.45 | 70825 | 107919
5 | 23:58.70 | 5:54.35 | 107920 | 134504
6 | 29:53.30 | 3:36.12 | 134505 | 150716
7 | 33:29.42 | 3:40.48 | 150717 | 167264
8 | 37:10.15 | 4:03.35 | 167265 | 185524
9 | 41:13.50 | 4:09.55 | 185525 | 204254
10 | 45:23.30 | 4:55.05 | 204255 | 226384
11 | 50:18.35 | 4:12.35 | 226385 | 245319
12 | 54:30.70 | 4:41.45 | 245320 | 266439
13 | 59:12.40 | 5:01.55 | 266440 | 289069
14 | 64:14.20 | 4:39.15 | 289070 | 310009
15 | 68:53.35 | 5:41.30 | 310010 | 335614
16 | 74:34.65 | 4:24.47 | 335615 | 355461

Range status and errors

Selected range

Filename D:\_МУЗЫКА\Dire Straits – Sultans Of Swing the Very Best Of Dire Straits [SHM-CD UICY-25236]\Dire Straits – Sultans Of Swing – The Very Best Of DireStraits (SHM-CD UICY-25236).wav

Peak level 96.4 %
Extraction speed 2.2 X
Range quality 100.0 %
Test CRC 7DB7789B
Copy CRC 7DB7789B
Copy OK

No errors occurred

AccurateRip summary

Track 1 accurately ripped (confidence 15) [79D9A3B0] (AR v2)
Track 2 accurately ripped (confidence 14) [14B8B9D6] (AR v2)
Track 3 accurately ripped (confidence 15) [8350EA36] (AR v2)
Track 4 accurately ripped (confidence 16) [334D15D8] (AR v2)
Track 5 accurately ripped (confidence 16) [C70A9944] (AR v2)
Track 6 accurately ripped (confidence 14) [1FE54015] (AR v2)
Track 7 accurately ripped (confidence 13) [CAF2B57B] (AR v2)
Track 8 accurately ripped (confidence 15) [5147C0B6] (AR v2)
Track 9 accurately ripped (confidence 15) [D6B80546] (AR v2)
Track 10 accurately ripped (confidence 15) [83E4376B] (AR v2)
Track 11 accurately ripped (confidence 15) [0FFA1099] (AR v2)
Track 12 accurately ripped (confidence 15) [4E878D55] (AR v2)
Track 13 accurately ripped (confidence 15) [2C8ABC13] (AR v2)
Track 14 accurately ripped (confidence 14) [28654411] (AR v2)
Track 15 accurately ripped (confidence 14) [48B12DBD] (AR v2)
Track 16 accurately ripped (confidence 13) [08E729EE] (AR v2)

All tracks accurately ripped

End of status report

—- CUETools DB Plugin V2.1.6

[CTDB TOCID: mg0IVEsmLpkvu_tqsncxuRbamuQ-] found
Submit result: mg0IVEsmLpkvu_tqsncxuRbamuQ- has been confirmed
Track | CTDB Status
1 | (115/120) Accurately ripped
2 | (118/120) Accurately ripped
3 | (116/120) Accurately ripped
4 | (117/120) Accurately ripped
5 | (118/120) Accurately ripped
6 | (118/120) Accurately ripped
7 | (118/120) Accurately ripped
8 | (117/120) Accurately ripped
9 | (116/120) Accurately ripped
10 | (118/120) Accurately ripped
11 | (117/120) Accurately ripped
12 | (115/120) Accurately ripped
13 | (117/120) Accurately ripped
14 | (114/120) Accurately ripped
15 | (116/120) Accurately ripped
16 | (111/120) Accurately ripped

==== Log checksum EB94541B138D9A43464F55713E92ACC151735F4F0ED478CEB5A4BA57DA9773D3 ====

REM GENRE Rock
REM DATE 1998
REM DISCID D7128310
REM COMMENT “ExactAudioCopy v1.3”
PERFORMER “Dire Straits”
TITLE “Sultans Of Swing (The Very Best Of Dire Straits)”
FILE “Dire Straits – Sultans Of Swing (The Very Best Of Dire Straits).flac” WAVE
TRACK 01 AUDIO
TITLE “Sultans Of Swing”
PERFORMER “Dire Straits”
INDEX 01 00:00:00
TRACK 02 AUDIO
TITLE “Lady Writer”
PERFORMER “Dire Straits”
INDEX 00 05:47:05
INDEX 01 05:50:30
TRACK 03 AUDIO
TITLE “Romeo And Juliet”
PERFORMER “Dire Straits”
INDEX 00 09:35:67
INDEX 01 09:39:32
TRACK 04 AUDIO
TITLE “Tunnel Of Love”
PERFORMER “Dire Straits”
INDEX 00 15:41:70
INDEX 01 15:44:25
TRACK 05 AUDIO
TITLE “Private Investigations”
PERFORMER “Dire Straits”
INDEX 00 23:55:62
INDEX 01 23:58:70
TRACK 06 AUDIO
TITLE “Twisting By The Pool”
PERFORMER “Dire Straits”
INDEX 00 29:49:40
INDEX 01 29:53:30
TRACK 07 AUDIO
TITLE “Love Over Gold (Live)”
PERFORMER “Dire Straits”
INDEX 00 33:25:07
INDEX 01 33:29:42
TRACK 08 AUDIO
TITLE “So Far Away”
PERFORMER “Dire Straits”
INDEX 00 37:05:17
INDEX 01 37:10:15
TRACK 09 AUDIO
TITLE “Money For Nothing”
PERFORMER “Dire Straits”
INDEX 00 41:10:17
INDEX 01 41:13:50
TRACK 10 AUDIO
TITLE “Brothers In Arms”
PERFORMER “Dire Straits”
INDEX 00 45:20:30
INDEX 01 45:23:30
TRACK 11 AUDIO
TITLE “Walk Of Life”
PERFORMER “Dire Straits”
INDEX 00 50:14:40
INDEX 01 50:18:35
TRACK 12 AUDIO
TITLE “Calling Elvis”
PERFORMER “Dire Straits”
INDEX 00 54:27:15
INDEX 01 54:30:70
TRACK 13 AUDIO
TITLE “Heavy Fuel”
PERFORMER “Dire Straits”
INDEX 00 59:08:32
INDEX 01 59:12:40
TRACK 14 AUDIO
TITLE “On Every Street”
PERFORMER “Dire Straits”
INDEX 00 64:07:52
INDEX 01 64:14:20
TRACK 15 AUDIO
TITLE “Your Latest Trick (Live)”
PERFORMER “Dire Straits”
INDEX 00 68:49:60
INDEX 01 68:53:35
TRACK 16 AUDIO
TITLE “Local Hero / Wild Theme (Live)”
PERFORMER “Dire Straits”
INDEX 00 74:31:70
INDEX 01 74:34:65


Leave a Reply

Your email address will not be published. Required fields are marked *

Enter the text from the image below
 

This site uses Akismet to reduce spam. Learn how your comment data is processed.