Dire Straits – On The Night




Artist: Dire Straits
Year: 1993
Genre: Rock
Notes: Discogs
Add. Notes:
Cover incl.: Yes
Encoder: FLAC
Bitrate: ~900 kBit/s (44.1 kHz/16 Bit/s)
Log & Cue incl.: Yes
Size: 589,2 MB
Password: “slam” (without ” “)


All Downloads/Hosters are compatible

Download 1
KatFile.com
Turbobit.net
FileFactory.com
Rapidgator.net
Download 2
KatFile.com
Turbobit.net
FileFactory.com
Rapidgator.net

Tracklist:

1 Calling Elvis 10:25
2 Walk Of Life 5:06
3 Heavy Fuel 5:23
4 Romeo And Juliet 10:05
5 Private Investigations 9:43
6 Your Latest Trick 5:35
7 On Every Street 7:01
8 You And Your Friend 6:46
9 Money For Nothing 6:28
10 Brothers In Arms 8:55

EAC-Log, CUE-Sheed & NFO:

Click to open spoiler
Exact Audio Copy V1.0 beta 3 from 29. August 2011

EAC extraction logfile from 29. October 2014, 18:40

Dire Straits / On The Night

Used drive : PLEXTOR DVDR PX-L890SA Adapter: 2 ID: 1

Read mode : Secure
Utilize accurate stream : Yes
Defeat audio cache : Yes
Make use of C2 pointers : No

Read offset correction : 6
Overread into Lead-In and Lead-Out : No
Fill up missing offset samples with silence : Yes
Delete leading and trailing silent blocks : No
Null samples used in CRC calculations : Yes
Used interface : Native Win32 interface for Win NT & 2000

Used output format : User Defined Encoder
Selected bitrate : 768 kBit/s
Quality : High
Add ID3 tag : No
Command line compressor : G:\Program Files\Exact Audio Copy\FLAC\FLAC.EXE
Additional command line options : -V -8 -T “Date=%year%” -T “Genre=%genre%” %source%

TOC of the extracted CD

Track | Start | Length | Start sector | End sector
———————————————————
1 | 0:00.33 | 10:25.25 | 33 | 46932
2 | 10:25.58 | 5:06.00 | 46933 | 69882
3 | 15:31.58 | 5:23.02 | 69883 | 94109
4 | 20:54.60 | 10:05.73 | 94110 | 139557
5 | 31:00.58 | 9:43.00 | 139558 | 183282
6 | 40:43.58 | 5:35.00 | 183283 | 208407
7 | 46:18.58 | 7:01.00 | 208408 | 239982
8 | 53:19.58 | 6:48.00 | 239983 | 270582
9 | 60:07.58 | 6:28.00 | 270583 | 299682
10 | 66:35.58 | 8:55.37 | 299683 | 339844

Range status and errors

Selected range

Filename H:\MUSIC\Dire Straits\1993. Dire Straits – On The Night (Vertigo 514 766-2, Holland)\Dire Straits – On The Night.wav

Peak level 98.9 %
Extraction speed 6.7 X
Range quality 99.9 %
Test CRC F034FF11
Copy CRC F034FF11
Copy OK

No errors occurred

AccurateRip summary

Track 1 accurately ripped (confidence 125) [49B46581] (AR v2)
Track 2 accurately ripped (confidence 126) [8E268110] (AR v2)
Track 3 accurately ripped (confidence 126) [16138545] (AR v2)
Track 4 accurately ripped (confidence 126) [322F9002] (AR v2)
Track 5 accurately ripped (confidence 126) [08E066C2] (AR v2)
Track 6 accurately ripped (confidence 126) [F165C28C] (AR v2)
Track 7 accurately ripped (confidence 124) [A995DF3C] (AR v2)
Track 8 accurately ripped (confidence 125) [8C79376D] (AR v2)
Track 9 accurately ripped (confidence 123) [E6F7E9E4] (AR v2)
Track 10 accurately ripped (confidence 118) [220CE327] (AR v2)

All tracks accurately ripped

End of status report

==== Log checksum A23FF6DCDF316CF8D822C02FEE65B46DBFC9F13D1553E7C8D7288345B78F2B9C ====

REM GENRE Rock
REM DATE 1993
REM DISCID 9311B30A
REM COMMENT “ExactAudioCopy v1.0b3”
PERFORMER “Dire Straits”
TITLE “On The Night”
FILE “Dire Straits – On The Night.flac” WAVE
TRACK 01 AUDIO
TITLE “Calling Elvis”
PERFORMER “Dire Straits”
INDEX 00 00:00:00
INDEX 01 00:00:33
TRACK 02 AUDIO
TITLE “Walk Of Life”
PERFORMER “Dire Straits”
INDEX 01 10:25:58
TRACK 03 AUDIO
TITLE “Heavy Fuel”
PERFORMER “Dire Straits”
INDEX 01 15:31:58
TRACK 04 AUDIO
TITLE “Romeo And Juliet”
PERFORMER “Dire Straits”
INDEX 01 20:54:60
TRACK 05 AUDIO
TITLE “Private Investigations”
PERFORMER “Dire Straits”
INDEX 01 31:00:58
TRACK 06 AUDIO
TITLE “Your Latest Trick”
PERFORMER “Dire Straits”
INDEX 01 40:43:58
TRACK 07 AUDIO
TITLE “On Every Street”
PERFORMER “Dire Straits”
INDEX 01 46:18:58
TRACK 08 AUDIO
TITLE “You And Your Friend”
PERFORMER “Dire Straits”
INDEX 01 53:19:58
TRACK 09 AUDIO
TITLE “Money For Nothing”
PERFORMER “Dire Straits”
INDEX 01 60:07:58
TRACK 10 AUDIO
TITLE “Brothers In Arms”
PERFORMER “Dire Straits”
INDEX 01 66:35:58


Leave a Reply

Your email address will not be published. Required fields are marked *

Enter the text from the image below
 

This site uses Akismet to reduce spam. Learn how your comment data is processed.