Dire Straits – On The Night (Remastered)




Artist: Dire Straits
Year: 1993/1996
Genre: Rock
Notes: Discogs
Add. Notes: Remastered
Cover incl.: Yes
Encoder: FLAC
Bitrate: ~900 kBit/s (44.1 kHz/16 Bit/s)
Log & Cue incl.: Yes
Size: 586 MB
Password: “slam” (without ” “)


All Downloads/Hosters are compatible

Download 1
KatFile.com
Rapidgator.net
Turbobit.net
FileFactory.com
Download 2
KatFile.com
Rapidgator.net
Turbobit.net
FileFactory.com

Tracklist:

1 - Calling Elvis - 10:26
2 - Walk Of Life - 5:06
3 - Heavy Fuel - 5:23
4 - Romeo And Juliet - 10:06
5 - Private Investigations - 9:44
6 - Your Latest Trick - 5:34
7 - On Every Street - 7:02
8 - You And Your Friend - 6:47
9 - Money For Nothing - 6:28
10 - Brothers In Arms - 8:59

EAC-Log, CUE-Sheed & NFO:

Click to open spoiler
Exact Audio Copy V1.0 beta 3 from 29. August 2011

EAC extraction logfile from 29. October 2014, 17:53

Dire Straits / On The Night

Used drive : PLEXTOR DVDR PX-L890SA Adapter: 2 ID: 1

Read mode : Secure
Utilize accurate stream : Yes
Defeat audio cache : Yes
Make use of C2 pointers : No

Read offset correction : 6
Overread into Lead-In and Lead-Out : No
Fill up missing offset samples with silence : Yes
Delete leading and trailing silent blocks : No
Null samples used in CRC calculations : Yes
Used interface : Native Win32 interface for Win NT & 2000

Used output format : User Defined Encoder
Selected bitrate : 768 kBit/s
Quality : High
Add ID3 tag : No
Command line compressor : G:\Program Files\Exact Audio Copy\FLAC\FLAC.EXE
Additional command line options : -V -8 -T “Date=%year%” -T “Genre=%genre%” %source%

TOC of the extracted CD

Track | Start | Length | Start sector | End sector
———————————————————
1 | 0:00.00 | 10:26.00 | 0 | 46949
2 | 10:26.00 | 5:05.60 | 46950 | 69884
3 | 15:31.60 | 5:22.57 | 69885 | 94091
4 | 20:54.42 | 10:06.05 | 94092 | 139546
5 | 31:00.47 | 9:43.48 | 139547 | 183319
6 | 40:44.20 | 5:33.72 | 183320 | 208366
7 | 46:18.17 | 7:02.25 | 208367 | 240041
8 | 53:20.42 | 6:46.60 | 240042 | 270551
9 | 60:07.27 | 6:27.63 | 270552 | 299639
10 | 66:35.15 | 8:58.45 | 299640 | 340034

Range status and errors

Selected range

Filename H:\MUSIC\Dire Straits\1993. Dire Straits – On The Night (Mercury 514 766-2, Argentina)\Dire Straits – On The Night.wav

Peak level 97.7 %
Extraction speed 6.8 X
Range quality 99.9 %
Test CRC 3E73E523
Copy CRC 3E73E523
Copy OK

No errors occurred

AccurateRip summary

Track 1 not present in database
Track 2 not present in database
Track 3 not present in database
Track 4 not present in database
Track 5 not present in database
Track 6 not present in database
Track 7 not present in database
Track 8 not present in database
Track 9 not present in database
Track 10 not present in database

None of the tracks are present in the AccurateRip database

End of status report

==== Log checksum C673D446B027D3B18FD4AECA9FE79D38726F93320D09E8E64C8D8FBFCF558B88 ====

REM GENRE Rock
REM DATE 1993
REM DISCID 9611B50A
REM COMMENT “ExactAudioCopy v1.0b3”
PERFORMER “Dire Straits”
TITLE “On The Night”
FILE “Dire Straits – On The Night.flac” WAVE
TRACK 01 AUDIO
TITLE “Calling Elvis”
PERFORMER “Dire Straits”
INDEX 01 00:00:00
TRACK 02 AUDIO
TITLE “Walk Of Life”
PERFORMER “Dire Straits”
INDEX 01 10:26:00
TRACK 03 AUDIO
TITLE “Heavy Fuel”
PERFORMER “Dire Straits”
INDEX 01 15:31:60
TRACK 04 AUDIO
TITLE “Romeo And Juliet”
PERFORMER “Dire Straits”
INDEX 01 20:54:42
TRACK 05 AUDIO
TITLE “Private Investigations”
PERFORMER “Dire Straits”
INDEX 01 31:00:47
TRACK 06 AUDIO
TITLE “Your Latest Trick”
PERFORMER “Dire Straits”
INDEX 01 40:44:20
TRACK 07 AUDIO
TITLE “On Every Street”
PERFORMER “Dire Straits”
INDEX 01 46:18:17
TRACK 08 AUDIO
TITLE “You And Your Friend”
PERFORMER “Dire Straits”
INDEX 01 53:20:42
TRACK 09 AUDIO
TITLE “Money For Nothing”
PERFORMER “Dire Straits”
INDEX 01 60:07:27
TRACK 10 AUDIO
TITLE “Brothers In Arms”
PERFORMER “Dire Straits”
INDEX 01 66:35:15


Leave a Reply

Your email address will not be published. Required fields are marked *

This site uses Akismet to reduce spam. Learn how your comment data is processed.