Dire Straits – On The Night (Limited Edition)




[Total: 0    Average: 0/5]

Artist: Dire Straits
Year: 1993
Genre: Rock
Notes: Discogs
Add. Notes: Limited Edition
Cover incl.: Yes
Encoder: FLAC
Bitrate: ~900 kBit/s (44.1 kHz/16 Bit/s)
Log & Cue incl.: Yes
Size: 509,93 MB
Password: “slam” (without ” “)


All Downloads/Hosters are compatible

Download 1
Share-online.biz
KatFile.com
Rapidgator.net
Mexa.sh
Download 2
Share-online.biz
KatFile.com
Rapidgator.net
Mexa.sh

Tracklist:

1 - Calling Elvis - 10:25
2 - Walk Of Life - 5:06
3 - Heavy Fuel - 5:23
4 - Romeo And Juliet - 10:06
5 - Private Investigations - 9:43
6 - Your Latest Trick - 5:35
7 - On Every Street - 7:01
8 - You And Your Friend - 6:48
9 - Money For Nothing - 6:28
10 - Brothers In Arms - 8:56

EAC-Log, CUE-Sheed & NFO:

Click to open spoiler
Exact Audio Copy V1.0 beta 3 from 29. August 2011

Отчёт EAC об извлечении, выполненном 14. мая 2014, 7:30

Dire Straits / On The Night [Live]

Дисковод: hp CDDVDW TS-L633N Adapter: 0 ID: 0

Режим чтения : Достоверность
Использование точного потока : Да
Отключение кэша аудио : Да
Использование указателей C2 : Нет

Коррекция смещения при чтении : 6
Способность читать области Lead-in и Lead-out : Нет
Заполнение пропущенных сэмплов тишиной : Да
Удаление блоков с тишиной в начале и конце : Нет
При вычислениях CRC использовались нулевые сэмплы : Да
Интерфейс : Встроенный Win32-интерфейс для Win NT/2000

Выходной формат : Пользовательский кодировщик
Выбранный битрейт : 768 kBit/s
Качество : Высокий
Добавление ID3-тега : Нет
Утилита сжатия : C:\Program Files (x86)\Exact Audio Copy\Flac\flac.exe
Дополнительные параметры : -8 -V -T “ARTIST=%artist%” -T “TITLE=%title%” -T “ALBUM=%albumtitle%” -T “DATE=%year%” -T “TRACKNUMBER=%tracknr%” -T “GENRE=%genre%” -T “COMMENT=EAC FLAC -8” %source%

TOC извлечённого CD

Трек | Старт | Длительность | Начальный сектор | Конечный сектор
———————————————————————
1 | 0:00.00 | 10:25.25 | 0 | 46899
2 | 10:25.25 | 5:06.05 | 46900 | 69854
3 | 15:31.30 | 5:22.65 | 69855 | 94069
4 | 20:54.20 | 10:05.60 | 94070 | 139504
5 | 31:00.05 | 9:43.05 | 139505 | 183234
6 | 40:43.10 | 5:35.00 | 183235 | 208359
7 | 46:18.10 | 7:01.22 | 208360 | 239956
8 | 53:19.32 | 6:47.73 | 239957 | 270554
9 | 60:07.30 | 6:27.47 | 270555 | 299626
10 | 66:35.02 | 8:55.33 | 299627 | 339784

Характеристики диапазона извлечения и сообщения об ошибках

Выбранный диапазон

Имя файла C:\Users\Admin\Downloads\МУЗЫКА\Dire Straits – On The Night [Live] – 1996 [FLAC]\Dire Straits – On The Night [Live].wav

Пиковый уровень 97.7 %
Скорость извлечения 4.4 X
Качество диапазона 99.9 %
CRC теста 09560A07
CRC копии 09560A07
Копирование… OK

Ошибок не произошло

AccurateRip: сводка

Трек 1 : извлечено точно (доверие 61) [7903F8D5] (AR v2)
Трек 2 : извлечено точно (доверие 63) [561396E4] (AR v2)
Трек 3 : извлечено точно (доверие 63) [93ED6D97] (AR v2)
Трек 4 : извлечено точно (доверие 63) [76B91232] (AR v2)
Трек 5 : извлечено точно (доверие 63) [120990E9] (AR v2)
Трек 6 : извлечено точно (доверие 63) [EED85ADC] (AR v2)
Трек 7 : извлечено точно (доверие 63) [562D46B3] (AR v2)
Трек 8 : извлечено точно (доверие 62) [53E10A1C] (AR v2)
Трек 9 : извлечено точно (доверие 63) [E8CC9033] (AR v2)
Трек 10 : извлечено точно (доверие 63) [B9D09BC2] (AR v2)

Все треки извлечены точно

Конец отчёта

==== Контрольная сумма отчёта E3DA1314BB28AE56010EA97994DA6F86B1AF6FE382BD0DA87557459002553088 ====

REM GENRE Rock
REM DATE 1993
REM DISCID 9311B20A
REM COMMENT “ExactAudioCopy v1.0b3”
PERFORMER “Dire Straits”
TITLE “On The Night”
FILE “Dire Straits – On The Night.flac” WAVE
TRACK 01 AUDIO
TITLE “Calling Elvis”
PERFORMER “Dire Straits”
INDEX 01 00:00:00
TRACK 02 AUDIO
TITLE “Walk Of Life”
PERFORMER “Dire Straits”
INDEX 01 10:25:25
TRACK 03 AUDIO
TITLE “Heavy Fuel”
PERFORMER “Dire Straits”
INDEX 01 15:31:30
TRACK 04 AUDIO
TITLE “Romeo And Juliet”
PERFORMER “Dire Straits”
INDEX 01 20:54:20
TRACK 05 AUDIO
TITLE “Private Investigations”
PERFORMER “Dire Straits”
INDEX 01 31:00:05
TRACK 06 AUDIO
TITLE “Your Latest Trick”
PERFORMER “Dire Straits”
INDEX 01 40:43:10
TRACK 07 AUDIO
TITLE “On Every Street”
PERFORMER “Dire Straits”
INDEX 01 46:18:10
TRACK 08 AUDIO
TITLE “You And Your Friend”
PERFORMER “Dire Straits”
INDEX 01 53:19:32
TRACK 09 AUDIO
TITLE “Money For Nothing”
PERFORMER “Dire Straits”
INDEX 01 60:07:30
TRACK 10 AUDIO
TITLE “Brothers In Arms”
PERFORMER “Dire Straits”
INDEX 01 66:35:02


Spread the Download

Leave a Reply

Your email address will not be published. Required fields are marked *

Enter the text from the image below
 

This site uses Akismet to reduce spam. Learn how your comment data is processed.