Dire Straits – On The Night (Japanese Edition)




[Total: 0    Average: 0/5]

Artist: Dire Straits
Year: 1993
Genre: Rock
Notes: Discogs
Add. Notes: Japanese Edition
Cover incl.: Yes
Encoder: FLAC
Bitrate: ~900 kBit/s (44.1 kHz/16 Bit/s)
Log & Cue incl.: Yes
Size: 521 MB
Password: “slam” (without ” “)


All Downloads/Hosters are compatible

Download 1
KatFile.com
Turbobit.net
FileFactory.com
Rapidgator.net
Download 2
KatFile.com
Turbobit.net
FileFactory.com
Rapidgator.net

Tracklist:

1 - Calling Elvis - 10:25
2 - Walk Of Life - 5:06
3 - Heavy Fuel - 5:23
4 - Romeo And Juliet - 10:06
5 - Private Investigations - 9:43
6 - Your Latest Trick - 5:35
7 - On Every Street - 7:01
8 - You And Your Friend - 6:48
9 - Money For Nothing - 6:28
10 - Brothers In Arms - 8:55

EAC-Log, CUE-Sheed & NFO:

Click to open spoiler
Exact Audio Copy V1.1 from 23. June 2015

EAC extraction logfile from 25. July 2016, 23:39

Dire Straits / On the Night

Used drive : ASUS SDRW-08D1S-U Adapter: 1 ID: 1

Read mode : Secure
Utilize accurate stream : Yes
Defeat audio cache : Yes
Make use of C2 pointers : No

Read offset correction : 667
Overread into Lead-In and Lead-Out : No
Fill up missing offset samples with silence : Yes
Delete leading and trailing silent blocks : No
Null samples used in CRC calculations : Yes
Used interface : Native Win32 interface for Win NT & 2000

Used output format : User Defined Encoder
Selected bitrate : 128 kBit/s
Quality : High
Add ID3 tag : No
Command line compressor : C:\Program Files (x86)\Exact Audio Copy\Flac\flac.exe
Additional command line options : -V -8 -T “Date=%year%” -T “Genre=%genre%” %source%

TOC of the extracted CD

Track | Start | Length | Start sector | End sector
———————————————————
1 | 0:00.00 | 10:25.25 | 0 | 46899
2 | 10:25.25 | 5:06.00 | 46900 | 69849
3 | 15:31.25 | 5:23.02 | 69850 | 94076
4 | 20:54.27 | 10:05.73 | 94077 | 139524
5 | 31:00.25 | 9:43.00 | 139525 | 183249
6 | 40:43.25 | 5:35.00 | 183250 | 208374
7 | 46:18.25 | 7:01.00 | 208375 | 239949
8 | 53:19.25 | 6:48.00 | 239950 | 270549
9 | 60:07.25 | 6:28.27 | 270550 | 299676
10 | 66:35.52 | 8:54.53 | 299677 | 339779

Range status and errors

Selected range

Filename C:\Users\Олег\Desktop\Dire Straits – On the Night\Dire Straits – On the Night.wav

Peak level 98.9 %
Extraction speed 3.3 X
Range quality 100.0 %
Test CRC 6BB69B33
Copy CRC 6BB69B33
Copy OK

No errors occurred

AccurateRip summary

Track 1 accurately ripped (confidence 4) [4E0F963B] (AR v2)
Track 2 accurately ripped (confidence 4) [B90B02AE] (AR v2)
Track 3 accurately ripped (confidence 4) [15DF915D] (AR v2)
Track 4 accurately ripped (confidence 4) [5DE73504] (AR v2)
Track 5 accurately ripped (confidence 4) [640DC4BC] (AR v2)
Track 6 accurately ripped (confidence 4) [1C94C94B] (AR v2)
Track 7 accurately ripped (confidence 4) [F93B4B30] (AR v2)
Track 8 accurately ripped (confidence 4) [4EA8E2B9] (AR v2)
Track 9 accurately ripped (confidence 4) [56BC7AF1] (AR v2)
Track 10 accurately ripped (confidence 5) [E5A8E59F] (AR v2)

All tracks accurately ripped

End of status report

—- CUETools DB Plugin V2.1.6

[CTDB TOCID: agf0PWEvNNnLLrv1qTRRUro5590-] found
Submit result: agf0PWEvNNnLLrv1qTRRUro5590- has been confirmed
Track | CTDB Status
1 | (42/44) Accurately ripped
2 | (42/44) Accurately ripped
3 | (42/44) Accurately ripped
4 | (42/44) Accurately ripped
5 | (39/44) Accurately ripped
6 | (42/44) Accurately ripped
7 | (42/44) Accurately ripped
8 | (42/44) Accurately ripped
9 | (11/44) Accurately ripped, or (26/44) differs in 1234 samples @00:13:05-00:13:33,00:15:22-00:15:47
10 | (40/44) Accurately ripped
If you are sure that your rip contains errors, you can use CUETools to repair it.

==== Log checksum 75F8263149E7C9C765162DB9C01A8C9E861174B64892EC305077EA8C7533439A ====

REM GENRE Rock
REM DATE 1993
REM DISCID 9311B20A
REM COMMENT “ExactAudioCopy v1.1”
PERFORMER “Dire Straits”
TITLE “On The Night”
FILE “Dire Straits – On The Night.flac” WAVE
TRACK 01 AUDIO
TITLE “Calling Elvis”
PERFORMER “Dire Straits”
INDEX 01 00:00:00
TRACK 02 AUDIO
TITLE “Walk Of Life”
PERFORMER “Dire Straits”
INDEX 01 10:25:25
TRACK 03 AUDIO
TITLE “Heavy Fuel”
PERFORMER “Dire Straits”
INDEX 01 15:31:25
TRACK 04 AUDIO
TITLE “Romeo And Juliet”
PERFORMER “Dire Straits”
INDEX 01 20:54:27
TRACK 05 AUDIO
TITLE “Private Investigations”
PERFORMER “Dire Straits”
INDEX 01 31:00:25
TRACK 06 AUDIO
TITLE “Your Latest Trick”
PERFORMER “Dire Straits”
INDEX 01 40:43:25
TRACK 07 AUDIO
TITLE “On Every Street”
PERFORMER “Dire Straits”
INDEX 01 46:18:25
TRACK 08 AUDIO
TITLE “You And Your Friend”
PERFORMER “Dire Straits”
INDEX 01 53:19:25
TRACK 09 AUDIO
TITLE “Money For Nothing”
PERFORMER “Dire Straits”
INDEX 01 60:07:25
TRACK 10 AUDIO
TITLE “Brothers In Arms”
PERFORMER “Dire Straits”
INDEX 01 66:35:52


Spread the Download

Leave a Reply

Your email address will not be published. Required fields are marked *

Enter the text from the image below
 

This site uses Akismet to reduce spam. Learn how your comment data is processed.