Dire Straits – On Every Street




Artist: Dire Straits
Year: 1991
Genre: Rock
Notes: Discogs
Add. Notes:
Cover incl.: Yes
Encoder: FLAC
Bitrate: ~800 kBit/s (44.1 kHz/16 Bit/s)
Log & Cue incl.: Yes
Size: 544 MB
Password: “slam” (without ” “)


All Downloads/Hosters are compatible

Download 1
KatFile.com
Rapidgator.net
Turbobit.net
FileFactory.com
Download 2
KatFile.com
Rapidgator.net
Turbobit.net
FileFactory.com

Tracklist:

1 - Calling Elvis - 6:27
2 - On Every Street - 5:04
3 - When It Comes To You - 5:01
4 - Fade To Black - 3:50
5 - The Bug - 4:16
6 - You And Your Friend - 5:59
7 - Heavy Fuel - 4:56
8 - Iron Hand - 3:09
9 - Ticket To Heaven - 4:25
10 - My Parties - 5:32
11 - Planet Of New Orleans - 7:48
12 - How Long - 3:49

EAC-Log, CUE-Sheed & NFO:

Click to open spoiler
Exact Audio Copy V1.1 from 23. June 2015

EAC extraction logfile from 12. April 2017, 21:04

Dire Straits / On Every Street (510 160-2)

Used drive : HL-DT-STDVDRAM GE20NU11 Adapter: 1 ID: 0

Read mode : Secure
Utilize accurate stream : Yes
Defeat audio cache : Yes
Make use of C2 pointers : No

Read offset correction : 667
Overread into Lead-In and Lead-Out : No
Fill up missing offset samples with silence : Yes
Delete leading and trailing silent blocks : No
Null samples used in CRC calculations : Yes
Used interface : Native Win32 interface for Win NT & 2000

Used output format : User Defined Encoder
Selected bitrate : 896 kBit/s
Quality : High
Add ID3 tag : No
Command line compressor : C:\Program Files\EAC 3\Exact Audio Copy\Flac\flac.exe
Additional command line options : -V -8 %source%

TOC of the extracted CD

Track | Start | Length | Start sector | End sector
———————————————————
1 | 0:00.33 | 6:27.30 | 33 | 29087
2 | 6:27.63 | 5:04.15 | 29088 | 51902
3 | 11:32.03 | 5:01.02 | 51903 | 74479
4 | 16:33.05 | 3:50.40 | 74480 | 91769
5 | 20:23.45 | 4:16.50 | 91770 | 111019
6 | 24:40.20 | 5:59.23 | 111020 | 137967
7 | 30:39.43 | 4:56.12 | 137968 | 160179
8 | 35:35.55 | 3:09.48 | 160180 | 174402
9 | 38:45.28 | 4:25.47 | 174403 | 194324
10 | 43:11.00 | 5:32.73 | 194325 | 219297
11 | 48:43.73 | 7:48.15 | 219298 | 254412
12 | 56:32.13 | 3:49.25 | 254413 | 271612

Range status and errors

Selected range

Filename Z:\OdW\Dire Straits\1991 On Every Street (510 160-2) [01 +] Germany\Dire Straits – On Every Street (510 160-2).wav

Peak level 100.0 %
Extraction speed 7.0 X
Range quality 100.0 %
Test CRC 02404FFC
Copy CRC 02404FFC
Copy OK

No errors occurred

AccurateRip summary

Track 1 accurately ripped (confidence 200) [794AD790] (AR v2)
Track 2 accurately ripped (confidence 200) [17789FA1] (AR v2)
Track 3 accurately ripped (confidence 200) [FBF68A32] (AR v2)
Track 4 accurately ripped (confidence 200) [606B1210] (AR v2)
Track 5 accurately ripped (confidence 200) [713F0964] (AR v2)
Track 6 accurately ripped (confidence 200) [7CB1A9B5] (AR v2)
Track 7 accurately ripped (confidence 200) [72744173] (AR v2)
Track 8 accurately ripped (confidence 200) [3C7D059A] (AR v2)
Track 9 accurately ripped (confidence 200) [01279C8A] (AR v2)
Track 10 accurately ripped (confidence 200) [199ACFE7] (AR v2)
Track 11 accurately ripped (confidence 200) [397F7691] (AR v2)
Track 12 accurately ripped (confidence 200) [BC085767] (AR v2)

All tracks accurately ripped

End of status report

—- CUETools DB Plugin V2.1.6

[CTDB TOCID: LxM_SuBoxm0rJuACc0LJcfhIGU0-] found
Submit result: LxM_SuBoxm0rJuACc0LJcfhIGU0- has been confirmed
Track | CTDB Status
1 | (1106/2248) Accurately ripped
2 | (1105/2248) Accurately ripped
3 | (1105/2248) Accurately ripped
4 | (1107/2248) Accurately ripped
5 | (1104/2248) Accurately ripped
6 | (1101/2248) Accurately ripped
7 | (1105/2248) Accurately ripped
8 | (1104/2248) Accurately ripped
9 | (1104/2248) Accurately ripped
10 | (1108/2248) Accurately ripped
11 | (1105/2248) Accurately ripped
12 | (1098/2248) Accurately ripped

==== Log checksum 80C6C6892F61AE2764028323A91B9D947C021E613610A3E091568802C4730C4B ====

REM GENRE Rock
REM DATE 1991
REM DISCID BA0E250C
REM COMMENT “ExactAudioCopy v1.1”
PERFORMER “Dire Straits”
TITLE “On Every Street”
FILE “Dire Straits – On Every Street.flac” WAVE
TRACK 01 AUDIO
TITLE “Calling Elvis”
PERFORMER “Dire Straits”
INDEX 00 00:00:00
INDEX 01 00:00:33
TRACK 02 AUDIO
TITLE “On Every Street”
PERFORMER “Dire Straits”
INDEX 00 06:25:60
INDEX 01 06:27:63
TRACK 03 AUDIO
TITLE “When It Comes To You”
PERFORMER “Dire Straits”
INDEX 00 11:29:35
INDEX 01 11:32:03
TRACK 04 AUDIO
TITLE “Fade To Black”
PERFORMER “Dire Straits”
INDEX 00 16:31:50
INDEX 01 16:33:05
TRACK 05 AUDIO
TITLE “The Bug”
PERFORMER “Dire Straits”
INDEX 00 20:20:58
INDEX 01 20:23:45
TRACK 06 AUDIO
TITLE “You And Your Friend”
PERFORMER “Dire Straits”
INDEX 00 24:38:43
INDEX 01 24:40:20
TRACK 07 AUDIO
TITLE “Heavy Fuel”
PERFORMER “Dire Straits”
INDEX 00 30:37:33
INDEX 01 30:39:43
TRACK 08 AUDIO
TITLE “Iron Hand”
PERFORMER “Dire Straits”
INDEX 00 35:34:45
INDEX 01 35:35:55
TRACK 09 AUDIO
TITLE “Ticket To Heaven”
PERFORMER “Dire Straits”
INDEX 00 38:43:45
INDEX 01 38:45:28
TRACK 10 AUDIO
TITLE “My Parties”
PERFORMER “Dire Straits”
INDEX 00 43:09:20
INDEX 01 43:11:00
TRACK 11 AUDIO
TITLE “Planet Of New Orleans”
PERFORMER “Dire Straits”
INDEX 00 48:41:38
INDEX 01 48:43:73
TRACK 12 AUDIO
TITLE “How Long”
PERFORMER “Dire Straits”
INDEX 00 56:28:53
INDEX 01 56:32:13


Leave a Reply

Your email address will not be published. Required fields are marked *

Enter the text from the image below
 

This site uses Akismet to reduce spam. Learn how your comment data is processed.