Dire Straits – On Every Street (Remastered)




[Total: 0    Average: 0/5]

Artist: Dire Straits
Year: 1991/1996
Genre: Rock
Notes: Discogs
Add. Notes: Remastered
Cover incl.: Yes
Encoder: FLAC
Bitrate: ~800 kBit/s (44.1 kHz/16 Bit/s)
Log & Cue incl.: Yes
Size: 381,4 MB
Password: “slam” (without ” “)


All Downloads/Hosters are compatible

Download 1
KatFile.com
Turbobit.net
FileFactory.com
Rapidgator.net
Download 2
KatFile.com
Turbobit.net
FileFactory.com
Rapidgator.net
Download 3
KatFile.com
Turbobit.net
FileFactory.com
Rapidgator.net

Tracklist:

1 Calling Elvis 
2 On Every Street 
3 When It Comes To You 
4 Fade To Black 
5 The Bug 
6 You And Your Friend 
7 Heavy Fuel 
8 Iron Hand 
9 Ticket To Heaven 
10 My Parties 
11 Planet Of New Orleans 
12 How Long

EAC-Log, CUE-Sheed & NFO:

Click to open spoiler
Exact Audio Copy V1.0 beta 3 from 29. August 2011

Отчёт EAC об извлечении, выполненном 14. мая 2014, 9:09

Dire Straits / On Every Street

Дисковод: hp CDDVDW TS-L633N Adapter: 0 ID: 0

Режим чтения : Достоверность
Использование точного потока : Да
Отключение кэша аудио : Да
Использование указателей C2 : Нет

Коррекция смещения при чтении : 6
Способность читать области Lead-in и Lead-out : Нет
Заполнение пропущенных сэмплов тишиной : Да
Удаление блоков с тишиной в начале и конце : Нет
При вычислениях CRC использовались нулевые сэмплы : Да
Интерфейс : Встроенный Win32-интерфейс для Win NT/2000

Выходной формат : Пользовательский кодировщик
Выбранный битрейт : 768 kBit/s
Качество : Высокий
Добавление ID3-тега : Нет
Утилита сжатия : C:\Program Files (x86)\Exact Audio Copy\Flac\flac.exe
Дополнительные параметры : -8 -V -T “ARTIST=%artist%” -T “TITLE=%title%” -T “ALBUM=%albumtitle%” -T “DATE=%year%” -T “TRACKNUMBER=%tracknr%” -T “GENRE=%genre%” -T “COMMENT=EAC FLAC -8” %source%

TOC извлечённого CD

Трек | Старт | Длительность | Начальный сектор | Конечный сектор
———————————————————————
1 | 0:00.32 | 6:26.43 | 32 | 29024
2 | 6:27.00 | 5:04.15 | 29025 | 51839
3 | 11:31.15 | 5:01.02 | 51840 | 74416
4 | 16:32.17 | 3:50.43 | 74417 | 91709
5 | 20:22.60 | 4:16.45 | 91710 | 110954
6 | 24:39.30 | 5:59.25 | 110955 | 137904
7 | 30:38.55 | 5:10.52 | 137905 | 161206
8 | 35:49.32 | 3:09.48 | 161207 | 175429
9 | 38:59.05 | 4:25.47 | 175430 | 195351
10 | 43:24.52 | 5:33.05 | 195352 | 220331
11 | 48:57.57 | 7:48.08 | 220332 | 255439
12 | 56:45.65 | 3:49.55 | 255440 | 272669

Характеристики диапазона извлечения и сообщения об ошибках

Выбранный диапазон

Имя файла C:\Users\Admin\Downloads\МУЗЫКА\Dire Straits – On Every Street – 1996 [FLAC]\Dire Straits – On Every Street.wav

Пиковый уровень 99.4 %
Скорость извлечения 3.9 X
Качество диапазона 100.0 %
CRC теста 8DF472CD
CRC копии 8DF472CD
Копирование… OK

Ошибок не произошло

AccurateRip: сводка

Трек 1 : извлечено точно (доверие 49) [800B816A] (AR v2)
Трек 2 : извлечено точно (доверие 48) [DB724048] (AR v2)
Трек 3 : извлечено точно (доверие 49) [FA228D7E] (AR v2)
Трек 4 : извлечено точно (доверие 49) [4CA2D320] (AR v2)
Трек 5 : извлечено точно (доверие 49) [D5424743] (AR v2)
Трек 6 : извлечено точно (доверие 50) [9F1FC20B] (AR v2)
Трек 7 : извлечено точно (доверие 49) [5CB3BBB8] (AR v2)
Трек 8 : извлечено точно (доверие 50) [DDAD253B] (AR v2)
Трек 9 : извлечено точно (доверие 50) [EAE62F04] (AR v2)
Трек 10 : извлечено точно (доверие 50) [10B1A209] (AR v2)
Трек 11 : извлечено точно (доверие 50) [1878BD1A] (AR v2)
Трек 12 : извлечено точно (доверие 49) [1D75D35B] (AR v2)

Все треки извлечены точно

Конец отчёта

==== Контрольная сумма отчёта 8414AEAF05ACEAB8BB2A2DA80CADCC380E89EFA3DD2FEB771FCF65BEAE84BD8B ====

REM GENRE Rock
REM DATE 1991
REM DISCID A80E330C
REM COMMENT “ExactAudioCopy v1.0b3”
PERFORMER “Dire Straits”
TITLE “On Every Street”
FILE “Dire Straits – On Every Street.flac” WAVE
TRACK 01 AUDIO
TITLE “Calling Elvis”
PERFORMER “Dire Straits”
INDEX 00 00:00:00
INDEX 01 00:00:32
TRACK 02 AUDIO
TITLE “On Every Street”
PERFORMER “Dire Straits”
INDEX 00 06:25:25
INDEX 01 06:27:00
TRACK 03 AUDIO
TITLE “When It Comes To You”
PERFORMER “Dire Straits”
INDEX 00 11:28:67
INDEX 01 11:31:15
TRACK 04 AUDIO
TITLE “Fade To Black”
PERFORMER “Dire Straits”
INDEX 00 16:30:70
INDEX 01 16:32:17
TRACK 05 AUDIO
TITLE “The Bug”
PERFORMER “Dire Straits”
INDEX 00 20:20:10
INDEX 01 20:22:60
TRACK 06 AUDIO
TITLE “You And Your Friend”
PERFORMER “Dire Straits”
INDEX 00 24:37:40
INDEX 01 24:39:30
TRACK 07 AUDIO
TITLE “Heavy Fuel”
PERFORMER “Dire Straits”
INDEX 00 30:36:47
INDEX 01 30:38:55
TRACK 08 AUDIO
TITLE “Iron Hand”
PERFORMER “Dire Straits”
INDEX 00 35:48:45
INDEX 01 35:49:32
TRACK 09 AUDIO
TITLE “Ticket To Heaven”
PERFORMER “Dire Straits”
INDEX 00 38:57:47
INDEX 01 38:59:05
TRACK 10 AUDIO
TITLE “My Parties”
PERFORMER “Dire Straits”
INDEX 00 43:23:20
INDEX 01 43:24:52
TRACK 11 AUDIO
TITLE “Planet Of New Orleans”
PERFORMER “Dire Straits”
INDEX 00 48:55:40
INDEX 01 48:57:57
TRACK 12 AUDIO
TITLE “How Long”
PERFORMER “Dire Straits”
INDEX 00 56:42:57
INDEX 01 56:45:65


Spread the Download

Leave a Reply

Your email address will not be published. Required fields are marked *

Enter the text from the image below
 

This site uses Akismet to reduce spam. Learn how your comment data is processed.