Dire Straits – On Every Street (Japanese Edition)




Artist: Dire Straits
Year: 1991
Genre: Rock
Notes: Discogs
Add. Notes: Japanese Edition
Cover incl.: Yes
Encoder: FLAC
Bitrate: ~800 kBit/s (44.1 kHz/16 Bit/s)
Log & Cue incl.: Yes
Size: 482 MB
Password: “slam” (without ” “)


All Downloads/Hosters are compatible

Download 1
KatFile.com
Turbobit.net
FileFactory.com
Rapidgator.net
Download 2
KatFile.com
Turbobit.net
FileFactory.com
Rapidgator.net

Tracklist:

1 - Calling Elvis - 6:27
2 - On Every Street - 5:04
3 - When It Comes To You - 5:01
4 - Fade To Black - 3:50
5 - The Bug - 4:16
6 - You And Your Friend - 5:59
7 - Heavy Fuel - 4:56
8 - Iron Hand - 3:09
9 - Ticket To Heaven - 4:25
10 - My Parties - 5:32
11 - Planet Of New Orleans - 7:48
12 - How Long - 3:49

EAC-Log, CUE-Sheed & NFO:

Click to open spoiler
Exact Audio Copy V1.0 beta 3 from 29. August 2011

EAC extraction logfile from 6. May 2013, 23:04

Dire Straits / On Every Street

Used drive : PLEXTOR DVDR PX-716A Adapter: 0 ID: 0

Read mode : Secure
Utilize accurate stream : Yes
Defeat audio cache : Yes
Make use of C2 pointers : No

Read offset correction : 30
Overread into Lead-In and Lead-Out : Yes
Fill up missing offset samples with silence : Yes
Delete leading and trailing silent blocks : No
Null samples used in CRC calculations : Yes
Used interface : Native Win32 interface for Win NT & 2000

Used output format : User Defined Encoder
Selected bitrate : 896 kBit/s
Quality : High
Add ID3 tag : No
Command line compressor : C:\Program Files (x86)\FLAC\flac.exe
Additional command line options : -V -8 -T “Date=%year%” -T “Genre=%genre%” %source%

TOC of the extracted CD

Track | Start | Length | Start sector | End sector
———————————————————
1 | 0:00.37 | 6:27.30 | 37 | 29091
2 | 6:27.67 | 5:04.15 | 29092 | 51906
3 | 11:32.07 | 5:01.03 | 51907 | 74484
4 | 16:33.10 | 3:50.40 | 74485 | 91774
5 | 20:23.50 | 4:16.50 | 91775 | 111024
6 | 24:40.25 | 5:59.22 | 111025 | 137971
7 | 30:39.47 | 4:56.13 | 137972 | 160184
8 | 35:35.60 | 3:09.47 | 160185 | 174406
9 | 38:45.32 | 4:25.48 | 174407 | 194329
10 | 43:11.05 | 5:32.72 | 194330 | 219301
11 | 48:44.02 | 7:48.20 | 219302 | 254421
12 | 56:32.22 | 3:49.20 | 254422 | 271616

Range status and errors

Selected range

Filename E:\Youtracker\Dire Straits – Collection\6 Studio Albums\1991 Dire Straits – On Every Street (Nippon PHCR-1120 japan)\Dire Straits – On Every Street (japan).wav

Peak level 100.0 %
Extraction speed 1.7 X
Range quality 100.0 %
Test CRC EAB9682F
Copy CRC EAB9682F
Copy OK

No errors occurred

AccurateRip summary

Track 1 accurately ripped (confidence 7) [25D6E9C0] (AR v1)
Track 2 accurately ripped (confidence 7) [2554ADBD] (AR v1)
Track 3 accurately ripped (confidence 7) [61EB4EF2] (AR v1)
Track 4 accurately ripped (confidence 7) [EC6B28B8] (AR v1)
Track 5 accurately ripped (confidence 7) [77D13CB0] (AR v1)
Track 6 accurately ripped (confidence 7) [7CD9B5EC] (AR v1)
Track 7 accurately ripped (confidence 7) [6DA3C2A6] (AR v1)
Track 8 accurately ripped (confidence 7) [864CF317] (AR v1)
Track 9 accurately ripped (confidence 7) [664F0AD2] (AR v1)
Track 10 accurately ripped (confidence 7) [F7CF50B8] (AR v1)
Track 11 accurately ripped (confidence 7) [EFEFD07F] (AR v1)
Track 12 accurately ripped (confidence 7) [62AF550D] (AR v1)

All tracks accurately ripped

End of status report

—- CUETools DB Plugin V2.1.5

[CTDB TOCID: .4DhgfA8bDdRekGHHgTJ2pao9S4-] found
Submit result: .4DhgfA8bDdRekGHHgTJ2pao9S4- has been confirmed
Track | CTDB Status
1 | (1/1) Accurately ripped
2 | (1/1) Accurately ripped
3 | (1/1) Accurately ripped
4 | (1/1) Accurately ripped
5 | (1/1) Accurately ripped
6 | (1/1) Accurately ripped
7 | (1/1) Accurately ripped
8 | (1/1) Accurately ripped
9 | (1/1) Accurately ripped
10 | (1/1) Accurately ripped
11 | (1/1) Accurately ripped
12 | (1/1) Accurately ripped

==== Log checksum FC98DD4A43CCE879FB60BB1BDD11CE3F04222BAF9D79163885E40704623A37B0 ====

REM GENRE Rock
REM DATE 1991
REM DISCID BB0E250C
REM COMMENT “ExactAudioCopy v1.0b3”
PERFORMER “Dire Straits”
TITLE “On Every Street”
FILE “Dire Straits – On Every Street.flac” WAVE
TRACK 01 AUDIO
TITLE “Calling Elvis”
PERFORMER “Dire Straits”
INDEX 00 00:00:00
INDEX 01 00:00:37
TRACK 02 AUDIO
TITLE “On Every Street”
PERFORMER “Dire Straits”
INDEX 00 06:25:66
INDEX 01 06:27:67
TRACK 03 AUDIO
TITLE “When It Comes To You”
PERFORMER “Dire Straits”
INDEX 00 11:29:41
INDEX 01 11:32:07
TRACK 04 AUDIO
TITLE “Fade To Black”
PERFORMER “Dire Straits”
INDEX 00 16:31:56
INDEX 01 16:33:10
TRACK 05 AUDIO
TITLE “The Bug”
PERFORMER “Dire Straits”
INDEX 00 20:20:63
INDEX 01 20:23:50
TRACK 06 AUDIO
TITLE “You And Your Friend”
PERFORMER “Dire Straits”
INDEX 00 24:38:37
INDEX 01 24:40:25
TRACK 07 AUDIO
TITLE “Heavy Fuel”
PERFORMER “Dire Straits”
INDEX 00 30:37:38
INDEX 01 30:39:47
TRACK 08 AUDIO
TITLE “Iron Hand”
PERFORMER “Dire Straits”
INDEX 00 35:34:51
INDEX 01 35:35:60
TRACK 09 AUDIO
TITLE “Ticket To Heaven”
PERFORMER “Dire Straits”
INDEX 00 38:43:51
INDEX 01 38:45:32
TRACK 10 AUDIO
TITLE “My Parties”
PERFORMER “Dire Straits”
INDEX 00 43:09:26
INDEX 01 43:11:05
TRACK 11 AUDIO
TITLE “Planet Of New Orleans”
PERFORMER “Dire Straits”
INDEX 00 48:41:43
INDEX 01 48:44:02
TRACK 12 AUDIO
TITLE “How Long”
PERFORMER “Dire Straits”
INDEX 00 56:28:58
INDEX 01 56:32:22


Leave a Reply

Your email address will not be published. Required fields are marked *

This site uses Akismet to reduce spam. Learn how your comment data is processed.