Dire Straits – On Every Street (Club Edition)




[Total: 0    Average: 0/5]

Artist: Dire Straits
Year: 1991
Genre: Rock
Notes: Discogs
Add. Notes: Club Edition
Cover incl.: Yes
Encoder: FLAC
Bitrate: ~800 kBit/s (44.1 kHz/16 Bit/s)
Log & Cue incl.: Yes
Size: 424 MB
Password: “slam” (without ” “)


All Downloads/Hosters are compatible

Download 1
Share-online.biz
KatFile.com
Rapidgator.net
Mexa.sh
Download 2
Share-online.biz
KatFile.com
Rapidgator.net
Mexa.sh

Tracklist:

1 - Calling Elvis - 6:27
2 - On Every Street - 5:04
3 - When It Comes To You - 5:01
4 - Fade To Black - 3:50
5 - The Bug - 4:16
6 - You And Your Friend - 5:59
7 - Heavy Fuel - 4:56
8 - Iron Hand - 3:09
9 - Ticket To Heaven - 4:25
10 - My Parties - 5:32
11 - Planet Of New Orleans - 7:48
12 - How Long - 3:49

EAC-Log, CUE-Sheed & NFO:

Click to open spoiler
Exact Audio Copy V1.3 from 2. September 2016

EAC extraction logfile from 29. April 2018, 14:59

Dire straits / On every street

Used drive : TSSTcorpCDDVDW TS-H653B Adapter: 1 ID: 0

Read mode : Secure
Utilize accurate stream : Yes
Defeat audio cache : Yes
Make use of C2 pointers : No

Read offset correction : 6
Overread into Lead-In and Lead-Out : No
Fill up missing offset samples with silence : Yes
Delete leading and trailing silent blocks : No
Null samples used in CRC calculations : Yes
Used interface : Native Win32 interface for Win NT & 2000

Used output format : User Defined Encoder
Selected bitrate : 896 kBit/s
Quality : High
Add ID3 tag : No
Command line compressor : C:\Program Files (x86)\Exact Audio Copy\Flac\flac.exe
Additional command line options : -V -8 -T “Date=%year%” -T “Genre=%genre%” %source%

TOC of the extracted CD

Track | Start | Length | Start sector | End sector
———————————————————
1 | 0:00.00 | 6:27.30 | 0 | 29054
2 | 6:27.30 | 5:04.15 | 29055 | 51869
3 | 11:31.45 | 5:01.02 | 51870 | 74446
4 | 16:32.47 | 3:50.40 | 74447 | 91736
5 | 20:23.12 | 4:16.48 | 91737 | 110984
6 | 24:39.60 | 5:59.25 | 110985 | 137934
7 | 30:39.10 | 4:56.10 | 137935 | 160144
8 | 35:35.20 | 3:09.47 | 160145 | 174366
9 | 38:44.67 | 4:25.50 | 174367 | 194291
10 | 43:10.42 | 5:32.73 | 194292 | 219264
11 | 48:43.40 | 7:48.15 | 219265 | 254379
12 | 56:31.55 | 3:49.25 | 254380 | 271579

Range status and errors

Selected range

Filename G:\MUSIC\To Camerado\DS\91\Dire straits – On every street.wav

Peak level 97.7 %
Extraction speed 7.3 X
Range quality 100.0 %
Test CRC 7BE1FCF0
Copy CRC 7BE1FCF0
Copy OK

No errors occurred

AccurateRip summary

Track 1 accurately ripped (confidence 23) [A10540C8] (AR v2)
Track 2 accurately ripped (confidence 23) [9F537DC1] (AR v2)
Track 3 accurately ripped (confidence 23) [D25CDD96] (AR v2)
Track 4 accurately ripped (confidence 24) [E04A5BD9] (AR v2)
Track 5 accurately ripped (confidence 23) [49C8A5A9] (AR v2)
Track 6 accurately ripped (confidence 24) [01D301E1] (AR v2)
Track 7 accurately ripped (confidence 23) [01E43AD0] (AR v2)
Track 8 accurately ripped (confidence 23) [793DCD87] (AR v2)
Track 9 accurately ripped (confidence 23) [1D1D4E37] (AR v2)
Track 10 accurately ripped (confidence 22) [122DCD74] (AR v2)
Track 11 accurately ripped (confidence 23) [97121A4C] (AR v2)
Track 12 accurately ripped (confidence 23) [D2B9DA9E] (AR v2)

All tracks accurately ripped

End of status report

—- CUETools DB Plugin V2.1.6

[CTDB TOCID: wN_7TyHFfK9mDucRWPPC7nT2YYM-] found
Submit result: wN_7TyHFfK9mDucRWPPC7nT2YYM- has been confirmed
Track | CTDB Status
1 | (156/159) Accurately ripped
2 | (156/159) Accurately ripped
3 | (156/159) Accurately ripped
4 | (155/159) Accurately ripped
5 | (156/159) Accurately ripped
6 | (155/159) Accurately ripped
7 | (154/159) Accurately ripped
8 | (154/159) Accurately ripped
9 | (152/159) Accurately ripped
10 | (155/159) Accurately ripped
11 | (152/159) Accurately ripped
12 | (152/159) Accurately ripped

==== Log checksum D0439EA4F353689290F4CD81B40029AE1A8DC60FF09403E5AADFBE8F68C67D68 ====

REM GENRE Rock
REM DATE 1991
REM DISCID B40E250C
REM COMMENT “ExactAudioCopy v1.3”
PERFORMER “Dire Straits”
TITLE “On Every Street”
FILE “Dire Straits – On Every Street.flac” WAVE
TRACK 01 AUDIO
TITLE “Calling Elvis”
PERFORMER “Dire Straits”
FLAGS DCP
INDEX 01 00:00:00
TRACK 02 AUDIO
TITLE “On Every Street”
PERFORMER “Dire Straits”
FLAGS DCP
INDEX 00 06:25:27
INDEX 01 06:27:30
TRACK 03 AUDIO
TITLE “When It Comes To You”
PERFORMER “Dire Straits”
FLAGS DCP
INDEX 00 11:29:02
INDEX 01 11:31:45
TRACK 04 AUDIO
TITLE “Fade To Black”
PERFORMER “Dire Straits”
FLAGS DCP
INDEX 00 16:31:17
INDEX 01 16:32:47
TRACK 05 AUDIO
TITLE “The Bug”
PERFORMER “Dire Straits”
FLAGS DCP
INDEX 00 20:20:25
INDEX 01 20:23:12
TRACK 06 AUDIO
TITLE “You And Your Friend”
PERFORMER “Dire Straits”
FLAGS DCP
INDEX 00 24:38:10
INDEX 01 24:39:60
TRACK 07 AUDIO
TITLE “Heavy Fuel”
PERFORMER “Dire Straits”
FLAGS DCP
INDEX 00 30:37:00
INDEX 01 30:39:10
TRACK 08 AUDIO
TITLE “Iron Hand”
PERFORMER “Dire Straits”
FLAGS DCP
INDEX 00 35:34:12
INDEX 01 35:35:20
TRACK 09 AUDIO
TITLE “Ticket To Heaven”
PERFORMER “Dire Straits”
FLAGS DCP
INDEX 00 38:43:12
INDEX 01 38:44:67
TRACK 10 AUDIO
TITLE “My Parties”
PERFORMER “Dire Straits”
FLAGS DCP
INDEX 00 43:08:62
INDEX 01 43:10:42
TRACK 11 AUDIO
TITLE “Planet Of New Orleans”
PERFORMER “Dire Straits”
FLAGS DCP
INDEX 00 48:41:05
INDEX 01 48:43:40
TRACK 12 AUDIO
TITLE “How Long”
PERFORMER “Dire Straits”
FLAGS DCP
INDEX 00 56:28:20
INDEX 01 56:31:55


Spread the Download

Leave a Reply

Your email address will not be published. Required fields are marked *

Enter the text from the image below
 

This site uses Akismet to reduce spam. Learn how your comment data is processed.