Dire Straits – Money For Nothing (Reissue)




[Total: 0    Average: 0/5]

Artist: Dire Straits
Year: 1988/1996
Genre: Rock
Notes: Discogs
Add. Notes: Reissue
Cover incl.: Yes
Encoder: FLAC
Bitrate: ~800 kBit/s (44.1 kHz/16 Bit/s)
Log & Cue incl.: Yes
Size: 421 MB
Password: “slam” (without ” “)


All Downloads/Hosters are compatible

Download 1
Share-online.biz
KatFile.com
Rapidgator.net
Mexa.sh
Download 2
Share-online.biz
KatFile.com
Rapidgator.net
Mexa.sh

Tracklist:

1 - Sultans Of Swing - 5:46
2 - Down To The Waterline - 4:00
3 - Portobello Belle - Live - 4:33
4 - Twisting By The Pool (Remix) - 
3:30
5 - Tunnel Of Love - 8:09
6 - Romeo And Juliet - 5:57
7 - Where Do You Think You're 
Going - 3:31
8 - Walk Of Life - 4:07
9 - Private Investigations - 5:48
10 - Telegraph Road - Live (Remix) - 
12:00
11 - Money For Nothing - 4:05
12 - Brothers In Arms - 4:48

EAC-Log, CUE-Sheed & NFO:

Click to open spoiler
Exact Audio Copy V1.0 beta 3 from 29. August 2011

????? EAC ?? ??????????, ??????????? 13. ??? 2014, 1:23

Dire Straits / Money For Nothing

????????: hp CDDVDW TS-L633N Adapter: 0 ID: 0

????? ?????? : ?????????????
????????????? ??????? ?????? : ??
?????????? ???? ????? : ??
????????????? ?????????? C2 : ???

????????? ???????? ??? ?????? : 6
??????????? ?????? ??????? Lead-in ? Lead-out : ???
?????????? ??????????? ??????? ??????? : ??
???????? ?????? ? ??????? ? ?????? ? ????? : ???
??? ??????????? CRC ?????????????? ??????? ?????? : ??
????????? : ?????????? Win32-????????? ??? Win NT/2000

???????? ?????? : ???????????????? ??????????
????????? ??????? : 768 kBit/s
???????? : ???????
?????????? ID3-???? : ???
??????? ?????? : C:\Program Files (x86)\Exact Audio Copy\Flac\flac.exe
?????????????? ????????? : -8 -V -T “ARTIST=%artist%” -T “TITLE=%title%” -T “ALBUM=%albumtitle%” -T “DATE=%year%” -T “TRACKNUMBER=%tracknr%” -T “GENRE=%genre%” -T “COMMENT=EAC FLAC -8” %source%

TOC ???????????? CD

???? | ????? | ???????????? | ????????? ?????? | ???????? ??????
———————————————————————
1 | 0:00.32 | 5:46.28 | 32 | 26009
2 | 5:46.60 | 4:01.00 | 26010 | 44084
3 | 9:47.60 | 4:34.12 | 44085 | 64646
4 | 14:21.72 | 3:30.48 | 64647 | 80444
5 | 17:52.45 | 8:10.15 | 80445 | 117209
6 | 26:02.60 | 5:56.67 | 117210 | 143976
7 | 31:59.52 | 3:30.35 | 143977 | 159761
8 | 35:30.12 | 4:07.58 | 159762 | 178344
9 | 39:37.70 | 5:51.25 | 178345 | 204694
10 | 45:29.20 | 11:58.25 | 204695 | 258569
11 | 57:27.45 | 4:06.25 | 258570 | 277044
12 | 61:33.70 | 4:48.62 | 277045 | 298706

?????????????? ????????? ?????????? ? ????????? ?? ???????

????????? ????????

??? ????? C:\Users\Admin\Downloads\??????\Dire Srtaits – Money For Nothing – 1996 [FLAC]\Dire Straits – Money For Nothing.wav

??????? ??????? 100.0 %
???????? ?????????? 4.1 X
???????? ????????? 100.0 %
CRC ????? 1AD13AA7
CRC ????? 1AD13AA7
???????????… OK

?????? ?? ?????????

AccurateRip: ??????

???? 1 : ????????? ????? (??????? 97) [9DB4C1E6] (AR v2)
???? 2 : ????????? ????? (??????? 100) [079DB58E] (AR v2)
???? 3 : ????????? ????? (??????? 99) [0D120D35] (AR v2)
???? 4 : ????????? ????? (??????? 100) [9BAD7409] (AR v2)
???? 5 : ????????? ????? (??????? 99) [7796538D] (AR v2)
???? 6 : ????????? ????? (??????? 100) [AAA2BEA9] (AR v2)
???? 7 : ????????? ????? (??????? 97) [1D22BDCC] (AR v2)
???? 8 : ????????? ????? (??????? 98) [43F7092D] (AR v2)
???? 9 : ????????? ????? (??????? 96) [A7BD5415] (AR v2)
???? 10 : ????????? ????? (??????? 96) [F787589C] (AR v2)
???? 11 : ????????? ????? (??????? 96) [5521EA85] (AR v2)
???? 12 : ????????? ????? (??????? 91) [7B846209] (AR v2)

??? ????? ????????? ?????

????? ??????

==== ??????????? ????? ?????? B9346B1775BAD5DF593F90C7DB46C7FB0FBFA7E87C394677F6CF1D1DE33B2B42 ====

REM GENRE Rock
REM DATE 1988
REM DISCID B60F8E0C
REM COMMENT “ExactAudioCopy v1.0b3”
PERFORMER “Dire Straits”
TITLE “Money For Nothing”
FILE “Dire Straits – Money For Nothing.flac” WAVE
TRACK 01 AUDIO
TITLE “Sultans Of Swing”
PERFORMER “Dire Straits”
INDEX 00 00:00:00
INDEX 01 00:00:32
TRACK 02 AUDIO
TITLE “Down To The Waterline”
PERFORMER “Dire Straits”
INDEX 01 05:46:60
TRACK 03 AUDIO
TITLE “Portobello Belle – Live”
PERFORMER “Dire Straits”
INDEX 01 09:47:60
TRACK 04 AUDIO
TITLE “Twisting By The Pool (Remix)”
PERFORMER “Dire Straits”
INDEX 00 14:20:52
INDEX 01 14:21:72
TRACK 05 AUDIO
TITLE “Tunnel Of Love”
PERFORMER “Dire Straits”
INDEX 01 17:52:45
TRACK 06 AUDIO
TITLE “Romeo And Juliet”
PERFORMER “Dire Straits”
INDEX 00 26:01:67
INDEX 01 26:02:60
TRACK 07 AUDIO
TITLE “Where Do You Think You’re Going”
PERFORMER “Dire Straits”
INDEX 01 31:59:52
TRACK 08 AUDIO
TITLE “Walk Of Life”
PERFORMER “Dire Straits”
INDEX 00 35:29:65
INDEX 01 35:30:12
TRACK 09 AUDIO
TITLE “Private Investigations”
PERFORMER “Dire Straits”
INDEX 00 39:37:55
INDEX 01 39:37:70
TRACK 10 AUDIO
TITLE “Telegraph Road – Live (Remix)”
PERFORMER “Dire Straits”
INDEX 00 45:28:07
INDEX 01 45:29:20
TRACK 11 AUDIO
TITLE “Money For Nothing”
PERFORMER “Dire Straits”
INDEX 00 57:27:30
INDEX 01 57:27:45
TRACK 12 AUDIO
TITLE “Brothers In Arms”
PERFORMER “Dire Straits”
INDEX 00 61:32:70
INDEX 01 61:33:70


Spread the Download

Leave a Reply

Your email address will not be published. Required fields are marked *

Enter the text from the image below
 

This site uses Akismet to reduce spam. Learn how your comment data is processed.