Dire Straits – Money For Nothing (Reissue)




[Total: 0    Average: 0/5]

Artist: Dire Straits
Year: 1988/1996
Genre: Rock
Notes: Discogs
Add. Notes: Reissue
Cover incl.: Yes
Encoder: FLAC
Bitrate: ~800 kBit/s (44.1 kHz/16 Bit/s)
Log & Cue incl.: Yes
Size: 373,4 MB
Password: “slam” (without ” “)


All Downloads/Hosters are compatible

Download 1
KatFile.com
Turbobit.net
FileFactory.com
Rapidgator.net
Download 2
KatFile.com
Turbobit.net
FileFactory.com
Rapidgator.net

Tracklist:

1 Sultans Of Swing 5:46
2 Down To The Waterline 4:00
3 Portobello Belle - Live 4:33
4 Twisting By The Pool (Remix) 3:30
5 Tunnel Of Love 8:09
6 Romeo And Juliet 5:57
7 Where Do You Think You're Going 3:31
8 Walk Of Life 4:07
9 Private Investigations 5:48
10 Telegraph Road - Live (Remix) 12:00
11 Money For Nothing 4:05
12 Brothers In Arms 4:48

EAC-Log, CUE-Sheed & NFO:

Click to open spoiler
Exact Audio Copy V1.1 from 23. June 2015

EAC extraction logfile from 22. January 2016, 18:54

Dire Straits / Money For Nothing

Used drive : ASUS SDRW-08D1S-U Adapter: 1 ID: 1

Read mode : Secure
Utilize accurate stream : Yes
Defeat audio cache : Yes
Make use of C2 pointers : No

Read offset correction : 667
Overread into Lead-In and Lead-Out : No
Fill up missing offset samples with silence : Yes
Delete leading and trailing silent blocks : No
Null samples used in CRC calculations : Yes
Used interface : Native Win32 interface for Win NT & 2000

Used output format : User Defined Encoder
Selected bitrate : 128 kBit/s
Quality : High
Add ID3 tag : No
Command line compressor : C:\Program Files (x86)\Exact Audio Copy\Flac\flac.exe
Additional command line options : -V -8 -T “Date=%year%” -T “Genre=%genre%” %source%

TOC of the extracted CD

Track | Start | Length | Start sector | End sector
———————————————————
1 | 0:00.32 | 5:46.33 | 32 | 26014
2 | 5:46.65 | 4:01.02 | 26015 | 44091
3 | 9:47.67 | 4:33.65 | 44092 | 64631
4 | 14:21.57 | 3:30.73 | 64632 | 80454
5 | 17:52.55 | 8:10.57 | 80455 | 117261
6 | 26:03.37 | 5:56.18 | 117262 | 143979
7 | 31:59.55 | 3:30.42 | 143980 | 159771
8 | 35:30.22 | 4:08.00 | 159772 | 178371
9 | 39:38.22 | 5:50.40 | 178372 | 204661
10 | 45:28.62 | 11:59.35 | 204662 | 258621
11 | 57:28.22 | 4:05.73 | 258622 | 277069
12 | 61:34.20 | 4:50.00 | 277070 | 298819

Range status and errors

Selected range

Filename C:\Users\????\Desktop\Dire Straits – Money For Nothing\Dire Straits – Money For Nothing.wav

Peak level 100.0 %
Extraction speed 4.1 X
Range quality 100.0 %
Test CRC 6FB98EA0
Copy CRC 6FB98EA0
Copy OK

No errors occurred

AccurateRip summary

Track 1 accurately ripped (confidence 60) [BDE3E38A] (AR v2)
Track 2 accurately ripped (confidence 60) [F7B5CFB3] (AR v2)
Track 3 accurately ripped (confidence 61) [6785D2B9] (AR v2)
Track 4 accurately ripped (confidence 61) [DAF72DCB] (AR v2)
Track 5 accurately ripped (confidence 61) [06B70ABB] (AR v2)
Track 6 accurately ripped (confidence 61) [60A63DB0] (AR v2)
Track 7 accurately ripped (confidence 60) [F116D6C3] (AR v2)
Track 8 accurately ripped (confidence 60) [D0D67E6E] (AR v2)
Track 9 accurately ripped (confidence 58) [6945CD75] (AR v2)
Track 10 accurately ripped (confidence 61) [2B63626A] (AR v2)
Track 11 accurately ripped (confidence 61) [03B4A82A] (AR v2)
Track 12 accurately ripped (confidence 62) [BA020558] (AR v2)

All tracks accurately ripped

End of status report

—- CUETools DB Plugin V2.1.6

[CTDB TOCID: 25.F5nlmFd3RJ1gXGmj4gCsEd0w-] found
Submit result: 25.F5nlmFd3RJ1gXGmj4gCsEd0w- has been confirmed
Track | CTDB Status
1 | (40/42) Accurately ripped
2 | (42/42) Accurately ripped
3 | (41/42) Accurately ripped
4 | (42/42) Accurately ripped
5 | (41/42) Accurately ripped
6 | (41/42) Accurately ripped
7 | (41/42) Accurately ripped
8 | (41/42) Accurately ripped
9 | (41/42) Accurately ripped
10 | (41/42) Accurately ripped
11 | (41/42) Accurately ripped
12 | (41/42) Accurately ripped

==== Log checksum 7C2AAECC2DB36839E8FBD973C8297DBD807B9AB2FB18010EE5B071BA2AA7E497 ====

REM GENRE Rock
REM DATE 1988
REM DISCID A70F900C
REM COMMENT “ExactAudioCopy v1.1”
PERFORMER “Dire Straits”
TITLE “Money For Nothing”
FILE “Dire Straits – Money For Nothing.flac” WAVE
TRACK 01 AUDIO
TITLE “Sultans Of Swing”
PERFORMER “Dire Straits”
INDEX 00 00:00:00
INDEX 01 00:00:32
TRACK 02 AUDIO
TITLE “Down To The Waterline”
PERFORMER “Dire Straits”
INDEX 01 05:46:65
TRACK 03 AUDIO
TITLE “Portobello Belle – Live”
PERFORMER “Dire Straits”
INDEX 00 09:47:07
INDEX 01 09:47:67
TRACK 04 AUDIO
TITLE “Twisting By The Pool (Remix)”
PERFORMER “Dire Straits”
INDEX 00 14:20:45
INDEX 01 14:21:57
TRACK 05 AUDIO
TITLE “Tunnel Of Love”
PERFORMER “Dire Straits”
INDEX 00 17:51:65
INDEX 01 17:52:55
TRACK 06 AUDIO
TITLE “Romeo And Juliet”
PERFORMER “Dire Straits”
INDEX 00 26:01:57
INDEX 01 26:03:37
TRACK 07 AUDIO
TITLE “Where Do You Think You’re Going”
PERFORMER “Dire Straits”
INDEX 01 31:59:55
TRACK 08 AUDIO
TITLE “Walk Of Life”
PERFORMER “Dire Straits”
INDEX 01 35:30:22
TRACK 09 AUDIO
TITLE “Private Investigations”
PERFORMER “Dire Straits”
INDEX 00 39:37:55
INDEX 01 39:38:22
TRACK 10 AUDIO
TITLE “Telegraph Road – Live (Remix)”
PERFORMER “Dire Straits”
INDEX 01 45:28:62
TRACK 11 AUDIO
TITLE “Money For Nothing”
PERFORMER “Dire Straits”
INDEX 01 57:28:22
TRACK 12 AUDIO
TITLE “Brothers In Arms”
PERFORMER “Dire Straits”
INDEX 00 61:33:32
INDEX 01 61:34:20


Spread the Download

Leave a Reply

Your email address will not be published. Required fields are marked *

Enter the text from the image below
 

This site uses Akismet to reduce spam. Learn how your comment data is processed.