Dire Straits – Money For Nothing (Club Edition)




Artist: Dire Straits
Year: 1988
Genre: Rock
Notes: Discogs
Add. Notes: Club Edition
Cover incl.: Yes
Encoder: FLAC
Bitrate: ~800 kBit/s (44.1 kHz/16 Bit/s)
Log & Cue incl.: Yes
Size: 424 MB
Password: “slam” (without ” “)


All Downloads/Hosters are compatible

Download 1
KatFile.com
Turbobit.net
FileFactory.com
Rapidgator.net
Download 2
KatFile.com
Turbobit.net
FileFactory.com
Rapidgator.net

Tracklist:

01 - Sultans Of Swing - 5:46
02 - Down To The Waterline - 4:01
03 - Portobello Belle - Live - 4:33
04 - Twisting By The Pool (Remix) - 
3:30
05 - Tunnel Of Love - 8:10
06 - Romeo And Juliet - 5:56
07 - Where Do You Think You're 
Going - 3:30
08 - Walk Of Life - 4:08
09 - Private Investigations - 5:50
10 - Telegraph Road - Live (Remix) - 
11:59
11 - Money For Nothing - 4:06
12 - Brothers In Arms - 4:49

EAC-Log, CUE-Sheed & NFO:

Click to open spoiler
Exact Audio Copy V1.3 from 2. September 2016

EAC extraction logfile from 16. April 2017, 18:02

Dire Straits / Money For Nothing

Used drive : PLEXTOR DVDR PX-810SA Adapter: 1 ID: 0

Read mode : Secure
Utilize accurate stream : Yes
Defeat audio cache : Yes
Make use of C2 pointers : No

Read offset correction : 48
Overread into Lead-In and Lead-Out : No
Fill up missing offset samples with silence : Yes
Delete leading and trailing silent blocks : No
Null samples used in CRC calculations : Yes
Used interface : Native Win32 interface for Win NT & 2000

Used output format : User Defined Encoder
Selected bitrate : 1024 kBit/s
Quality : High
Add ID3 tag : No
Command line compressor : C:\Program Files (x86)\Exact Audio Copy\FLAC\FLAC.EXE
Additional command line options : -V -8 %source%

TOC of the extracted CD

Track | Start | Length | Start sector | End sector
———————————————————
1 | 0:00.33 | 5:46.27 | 33 | 26009
2 | 5:46.60 | 4:01.00 | 26010 | 44084
3 | 9:47.60 | 4:33.68 | 44085 | 64627
4 | 14:21.53 | 3:30.67 | 64628 | 80444
5 | 17:52.45 | 8:10.65 | 80445 | 117259
6 | 26:03.35 | 5:56.15 | 117260 | 143974
7 | 31:59.50 | 3:30.38 | 143975 | 159762
8 | 35:30.13 | 4:08.10 | 159763 | 178372
9 | 39:38.23 | 5:51.05 | 178373 | 204702
10 | 45:29.28 | 11:58.65 | 204703 | 258617
11 | 57:28.18 | 4:06.00 | 258618 | 277067
12 | 61:34.18 | 4:49.47 | 277068 | 298789

Range status and errors

Selected range

Filename D:\SSDdata\Music\1988 – Money For Nothing (Warner Bros.-WEA 9 25794-2 US, matrix 1 25794-2 SRC=08, Flac)\Dire Straits – Money For Nothing.wav

Peak level 98.6 %
Extraction speed 7.8 X
Range quality 100.0 %
Test CRC 45C32318
Copy CRC 45C32318
Copy OK

No errors occurred

AccurateRip summary

Track 1 accurately ripped (confidence 162) [55F003E4] (AR v2)
Track 2 accurately ripped (confidence 171) [AD106CF4] (AR v2)
Track 3 accurately ripped (confidence 168) [FF87C1A5] (AR v2)
Track 4 accurately ripped (confidence 170) [6C27E998] (AR v2)
Track 5 accurately ripped (confidence 165) [7A2E3A0A] (AR v2)
Track 6 accurately ripped (confidence 167) [47C481FF] (AR v2)
Track 7 accurately ripped (confidence 169) [53CADDBF] (AR v2)
Track 8 accurately ripped (confidence 172) [3AFA325C] (AR v2)
Track 9 accurately ripped (confidence 170) [3B649388] (AR v2)
Track 10 accurately ripped (confidence 157) [11A8F3B9] (AR v2)
Track 11 accurately ripped (confidence 165) [DC83B9C2] (AR v2)
Track 12 accurately ripped (confidence 158) [DDF129EC] (AR v2)

All tracks accurately ripped

End of status report

—- CUETools DB Plugin V2.1.6

[CTDB TOCID: 7eMVUXcb2Iv4BYXG0tcxgt3xjmU-] found
Submit result: 7eMVUXcb2Iv4BYXG0tcxgt3xjmU- has been confirmed
Track | CTDB Status
1 | (344/364) Accurately ripped
2 | (355/364) Accurately ripped
3 | (353/364) Accurately ripped
4 | (356/364) Accurately ripped
5 | (351/364) Accurately ripped
6 | (355/364) Accurately ripped
7 | (357/364) Accurately ripped
8 | (357/364) Accurately ripped
9 | (351/364) Accurately ripped
10 | (307/364) Accurately ripped
11 | (311/364) Accurately ripped
12 | (332/364) Accurately ripped

==== Log checksum 720E27BA3B91342BDB5BD1FC1DB18976BD52023ACA3C7015F358ACD4EAFB16B0 ====

REM GENRE Rock
REM DATE 1988
REM DISCID A80F8F0C
REM COMMENT “ExactAudioCopy v1.3”
PERFORMER “Dire Straits”
TITLE “Money For Nothing”
FILE “Dire Straits – Money For Nothing.flac” WAVE
TRACK 01 AUDIO
TITLE “Sultans Of Swing”
PERFORMER “Dire Straits”
INDEX 00 00:00:00
INDEX 01 00:00:33
TRACK 02 AUDIO
TITLE “Down To The Waterline”
PERFORMER “Dire Straits”
INDEX 01 05:46:60
TRACK 03 AUDIO
TITLE “Portobello Belle – Live”
PERFORMER “Dire Straits”
INDEX 00 09:46:70
INDEX 01 09:47:60
TRACK 04 AUDIO
TITLE “Twisting By The Pool (Remix)”
PERFORMER “Dire Straits”
INDEX 00 14:20:35
INDEX 01 14:21:53
TRACK 05 AUDIO
TITLE “Tunnel Of Love”
PERFORMER “Dire Straits”
INDEX 00 17:51:53
INDEX 01 17:52:45
TRACK 06 AUDIO
TITLE “Romeo And Juliet”
PERFORMER “Dire Straits”
INDEX 00 26:01:48
INDEX 01 26:03:35
TRACK 07 AUDIO
TITLE “Where Do You Think You’re Going”
PERFORMER “Dire Straits”
INDEX 01 31:59:50
TRACK 08 AUDIO
TITLE “Walk Of Life”
PERFORMER “Dire Straits”
INDEX 01 35:30:13
TRACK 09 AUDIO
TITLE “Private Investigations”
PERFORMER “Dire Straits”
INDEX 00 39:37:40
INDEX 01 39:38:23
TRACK 10 AUDIO
TITLE “Telegraph Road – Live (Remix)”
PERFORMER “Dire Straits”
INDEX 00 45:28:30
INDEX 01 45:29:28
TRACK 11 AUDIO
TITLE “Money For Nothing”
PERFORMER “Dire Straits”
INDEX 01 57:28:18
TRACK 12 AUDIO
TITLE “Brothers In Arms”
PERFORMER “Dire Straits”
INDEX 00 61:33:15
INDEX 01 61:34:18


Leave a Reply

Your email address will not be published. Required fields are marked *

Enter the text from the image below
 

This site uses Akismet to reduce spam. Learn how your comment data is processed.