Dire Straits & Mark Knopfler – Private Investigations – The Best Of




Artist: Dire Straits & Mark Knopfler
Year: 2005
Genre: Rock
Notes: Discogs
Add. Notes:
Cover incl.: Yes
Encoder: FLAC
Bitrate: ~900 kBit/s (44.1 kHz/16 Bit/s)
Log & Cue incl.: Yes/Yes
Size: 644,7 MB
Password: “slam” (without ” “)


All Downloads/Hosters are compatible

Download 1
KatFile.com
Turbobit.net
FileFactory.com
Rapidgator.net
Download 2
KatFile.com
Turbobit.net
FileFactory.com
Rapidgator.net

Tracklist:

1. Dire Straits - Sultans Of Swing - 5:50
2. Dire Straits - Love Over Gold - 6:16
3. Dire Straits - Romeo & Juliet - 6:00
4. Dire Straits - Tunnel Of Love - 8:10
5. Dire Straits - Private Investigations - 5:58
6. Dire Straits - Money For Nothing - 4:05
7. Dire Straits - Brothers In Arms - 6:57
8. Dire Straits - Walk Of Life - 4:07
9. Dire Straits - On Every Street - 5:02
10. Mark Knopfler - Going Home (Theme From The Local 
Hero) - 5:01
11. Mark Knopfler - Why Aye Man - 4:10
12. Mark Knopfler - Boom, Like That - 5:48
13. Mark Knopfler - What It Is - 4:55
14. Mark Knopfler & Emmylou Harris - All The 
Roadrunning - 4:47

EAC-Log, CUE-Sheed & NFO:

Click to open spoiler
Exact Audio Copy V1.1 from 23. June 2015

EAC extraction logfile from 5. April 2016, 19:20

Dire Straits & Mark Knopfler / Private Investigations – The Best Of

Used drive : ASUS DRW-24B1ST Adapter: 1 ID: 0

Read mode : Secure
Utilize accurate stream : Yes
Defeat audio cache : Yes
Make use of C2 pointers : No

Read offset correction : 6
Overread into Lead-In and Lead-Out : No
Fill up missing offset samples with silence : Yes
Delete leading and trailing silent blocks : No
Null samples used in CRC calculations : Yes
Used interface : Native Win32 interface for Win NT & 2000

Used output format : User Defined Encoder
Selected bitrate : 768 kBit/s
Quality : High
Add ID3 tag : No
Command line compressor : C:\Program Files (x86)\Exact Audio Copy\Flac\flac.exe
Additional command line options : -V -8 -T “Date=%year%” -T “Genre=%genre%” %source%

TOC of the extracted CD

Track | Start | Length | Start sector | End sector
———————————————————
1 | 0:00.00 | 5:48.64 | 0 | 26163
2 | 5:48.64 | 6:18.43 | 26164 | 54556
3 | 12:07.32 | 6:00.43 | 54557 | 81599
4 | 18:08.00 | 8:10.43 | 81600 | 118392
5 | 26:18.43 | 5:59.14 | 118393 | 145331
6 | 32:17.57 | 4:07.25 | 145332 | 163881
7 | 36:25.07 | 6:59.32 | 163882 | 195338
8 | 43:24.39 | 4:08.48 | 195339 | 213986
9 | 47:33.12 | 5:04.51 | 213987 | 236837
10 | 52:37.63 | 5:02.21 | 236838 | 259508
11 | 57:40.09 | 4:09.23 | 259509 | 278206
12 | 61:49.32 | 5:49.06 | 278207 | 304387
13 | 67:38.38 | 4:56.54 | 304388 | 326641
14 | 72:35.17 | 4:49.30 | 326642 | 348346

Range status and errors

Selected range

Filename E:\Dire Straits & Mark Knopfler – Private Investigations – The Best Of.wav

Peak level 100.0 %
Extraction speed 10.1 X
Range quality 100.0 %
Test CRC C0AC98AE
Copy CRC C0AC98AE
Copy OK

No errors occurred

AccurateRip summary

Track 1 accurately ripped (confidence 200) [32318417] (AR v2)
Track 2 accurately ripped (confidence 200) [A3F1553A] (AR v2)
Track 3 accurately ripped (confidence 200) [0D230ACF] (AR v2)
Track 4 accurately ripped (confidence 200) [5F1E93BB] (AR v2)
Track 5 accurately ripped (confidence 200) [8B2AA9D3] (AR v2)
Track 6 accurately ripped (confidence 200) [6F307AE7] (AR v2)
Track 7 accurately ripped (confidence 200) [623962A0] (AR v2)
Track 8 accurately ripped (confidence 200) [443E24CF] (AR v2)
Track 9 accurately ripped (confidence 200) [EA51552C] (AR v2)
Track 10 accurately ripped (confidence 200) [E91D452D] (AR v2)
Track 11 accurately ripped (confidence 200) [8906EAEB] (AR v2)
Track 12 accurately ripped (confidence 200) [EBA6CD3B] (AR v2)
Track 13 accurately ripped (confidence 200) [CB852EAC] (AR v2)
Track 14 accurately ripped (confidence 200) [A8E66FCB] (AR v2)

All tracks accurately ripped

End of status report

==== Log checksum BB939D56994E1F52D7FE7E0831B7CFDAFA57F6304ED22F5351492E2DE22B29B9 ====

REM GENRE Rock
REM DATE 2005
REM DISCID C812240E
REM COMMENT “ExactAudioCopy v1.1”
CATALOG 0602498740507
PERFORMER “Dire Straits & Mark Knopfler”
TITLE “Private Investigations – The Best Of”
FILE “Dire Straits & Mark Knopfler – Private Investigations – The Best Of.flac” WAVE
TRACK 01 AUDIO
TITLE “Sultans Of Swing”
PERFORMER “Dire Straits”
ISRC TbF089601041
INDEX 01 00:00:00
TRACK 02 AUDIO
TITLE “Love Over Gold”
PERFORMER “Dire Straits”
ISRC TbF088400782
INDEX 01 05:48:64
TRACK 03 AUDIO
TITLE “Romeo & Juliet”
PERFORMER “Dire Straits”
ISRC TbF088000675
INDEX 00 12:05:12
INDEX 01 12:07:32
TRACK 04 AUDIO
TITLE “Tunnel Of Love”
PERFORMER “Dire Straits”
ISRC TbF088000674
INDEX 00 18:07:30
INDEX 01 18:08:00
TRACK 05 AUDIO
TITLE “Private Investigations”
PERFORMER “Dire Straits”
ISRC TbF088200888
INDEX 00 26:17:65
INDEX 01 26:18:43
TRACK 06 AUDIO
TITLE “Money For Nothing”
PERFORMER “Dire Straits”
ISRC TbF088890016
INDEX 00 32:16:33
INDEX 01 32:17:57
TRACK 07 AUDIO
TITLE “Brothers In Arms”
PERFORMER “Dire Straits”
ISRC TbF088500681
INDEX 00 36:22:53
INDEX 01 36:25:07
TRACK 08 AUDIO
TITLE “Walk Of Life”
PERFORMER “Dire Straits”
ISRC TbF088500675
INDEX 00 43:22:60
INDEX 01 43:24:39
TRACK 09 AUDIO
TITLE “On Every Street”
PERFORMER “Dire Straits”
ISRC TbF089601052
INDEX 01 47:33:12
TRACK 10 AUDIO
TITLE “Going Home (Theme From The Local Hero)”
PERFORMER “Mark Knopfler”
ISRC TbF088390115
INDEX 00 52:37:16
INDEX 01 52:37:63
TRACK 11 AUDIO
TITLE “Why Aye Man”
PERFORMER “Mark Knopfler”
ISRC TbF080201277
INDEX 00 57:38:60
INDEX 01 57:40:09
TRACK 12 AUDIO
TITLE “Boom, Like That”
PERFORMER “Mark Knopfler”
ISRC TbF080400397
INDEX 01 61:49:32
TRACK 13 AUDIO
TITLE “What It Is”
PERFORMER “Mark Knopfler”
ISRC TbF080000154
INDEX 01 67:38:38
TRACK 14 AUDIO
TITLE “All The Roadrunning – duet with Emmylou Harris”
PERFORMER “Mark Knopfler”
ISRC TbF080500645
INDEX 00 72:34:44
INDEX 01 72:35:17


Leave a Reply

Your email address will not be published. Required fields are marked *

Enter the text from the image below
 

This site uses Akismet to reduce spam. Learn how your comment data is processed.