Dire Straits – Making Movies (Remastered)




Artist: Dire Straits
Year: 1980/2000
Genre: Rock
Notes: Discogs
Add. Notes: Remastered
Cover incl.: Yes
Encoder: FLAC
Bitrate: ~900 kBit/s (44.1 kHz/16 Bit/s)
Log & Cue incl.: Yes
Size: 286 MB
Password: “slam” (without ” “)


All Downloads/Hosters are compatible

Download 1
KatFile.com
Rapidgator.net
FileFactory.com
Turbobit.net
Download 2
KatFile.com
Rapidgator.net
FileFactory.com
Turbobit.net

Tracklist:

1 - Tunnel Of Love [Intro: The 
Carousel Waltz] - 8:12
2 - Romeo And Juliet - 6:02
3 - Skateaway - 6:40
4 - Expresso Love - 5:12
5 - Hand In Hand - 4:49
6 - Solid Rock - 3:27
7 - Les Boys - 4:08

EAC-Log, CUE-Sheed & NFO:

Click to open spoiler
Exact Audio Copy V1.0 beta 3 from 29. August 2011

EAC extraction logfile from 9. May 2014, 8:31

Dire Straits / Making Movies [Remastered]

Used drive : ASUS SDRW-08D1S-U Adapter: 1 ID: 0

Read mode : Secure
Utilize accurate stream : Yes
Defeat audio cache : Yes
Make use of C2 pointers : No

Read offset correction : 667
Overread into Lead-In and Lead-Out : No
Fill up missing offset samples with silence : Yes
Delete leading and trailing silent blocks : No
Null samples used in CRC calculations : Yes
Used interface : Native Win32 interface for Win NT & 2000

Used output format : User Defined Encoder
Selected bitrate : 128 kBit/s
Quality : High
Add ID3 tag : No
Command line compressor : C:\Program Files (x86)\Exact Audio Copy\Flac\flac.exe
Additional command line options : -V -8 -T “Date=%year%” -T “Genre=%genre%” %source%

TOC of the extracted CD

Track | Start | Length | Start sector | End sector
———————————————————
1 | 0:00.32 | 8:11.45 | 32 | 36901
2 | 8:12.02 | 6:01.68 | 36902 | 64044
3 | 14:13.70 | 6:40.32 | 64045 | 94076
4 | 20:54.27 | 5:12.18 | 94077 | 117494
5 | 26:06.45 | 4:48.57 | 117495 | 139151
6 | 30:55.27 | 3:27.03 | 139152 | 154679
7 | 34:22.30 | 4:08.35 | 154680 | 173314

Range status and errors

Selected range

Filename C:\Users\Олег\Desktop\Dire Straits – Making Movies [Remastered].wav

Peak level 98.8 %
Extraction speed 3.7 X
Range quality 100.0 %
Test CRC 9E411F71
Copy CRC 9E411F71
Copy OK

No errors occurred

AccurateRip summary

Track 1 accurately ripped (confidence 120) [B5C79C38] (AR v2)
Track 2 accurately ripped (confidence 121) [B8D45975] (AR v2)
Track 3 accurately ripped (confidence 121) [87BF1DAA] (AR v2)
Track 4 accurately ripped (confidence 120) [536166E8] (AR v2)
Track 5 accurately ripped (confidence 121) [67BAA413] (AR v2)
Track 6 accurately ripped (confidence 120) [AAA3769C] (AR v2)
Track 7 accurately ripped (confidence 116) [1557DAF5] (AR v2)

All tracks accurately ripped

End of status report

==== Log checksum 6804B7B02AEF09321DBAABC074D0AD0E4D388E91D7DFCFFF1C0AF2DDB1C75821 ====

REM GENRE Rock
REM DATE 1980
REM DISCID 68090607
REM COMMENT “ExactAudioCopy v1.0b3”
PERFORMER “Dire Straits”
TITLE “Making Movies”
FILE “Dire Straits – Making Movies.flac” WAVE
TRACK 01 AUDIO
TITLE “Tunnel Of Love”
PERFORMER “Dire Straits”
INDEX 00 00:00:00
INDEX 01 00:00:32
TRACK 02 AUDIO
TITLE “Romeo And Juliet”
PERFORMER “Dire Straits”
INDEX 00 08:09:52
INDEX 01 08:12:02
TRACK 03 AUDIO
TITLE “Skateaway”
PERFORMER “Dire Straits”
INDEX 00 14:12:07
INDEX 01 14:13:70
TRACK 04 AUDIO
TITLE “Expresso Love”
PERFORMER “Dire Straits”
INDEX 00 20:51:05
INDEX 01 20:54:27
TRACK 05 AUDIO
TITLE “Hand In Hand”
PERFORMER “Dire Straits”
INDEX 00 26:05:30
INDEX 01 26:06:45
TRACK 06 AUDIO
TITLE “Solid Rock”
PERFORMER “Dire Straits”
INDEX 00 30:54:12
INDEX 01 30:55:27
TRACK 07 AUDIO
TITLE “Les Boys”
PERFORMER “Dire Straits”
INDEX 00 34:20:52
INDEX 01 34:22:30


Leave a Reply

Your email address will not be published. Required fields are marked *

Enter the text from the image below
 

This site uses Akismet to reduce spam. Learn how your comment data is processed.