Dire Straits – Making Movies (Reissue)




Artist: Dire Straits
Year: 1980/1987
Genre: Rock
Notes: Discogs
Add. Notes: Reissue
Cover incl.: Yes
Encoder: FLAC
Bitrate: ~800 kBit/s (44.1 kHz/16 Bit/s)
Log & Cue incl.: Yes
Size: 287 MB
Password: “slam” (without ” “)


All Downloads/Hosters are compatible

Download 1
KatFile.com
Turbobit.net
Rapidgator.net
Download 2
KatFile.com
Turbobit.net
Rapidgator.net

Tracklist:

1 - Tunnel Of Love - 8:09
2 - Romeo And Juliet - 5:54
3 - Skateaway - 6:19
4 - Expresso Love - 5:03
5 - Hand In Hand - 4:49
6 - Solid Rock - 3:20
7 - Les Boys - 4:06

EAC-Log, CUE-Sheed & NFO:

Click to open spoiler
Exact Audio Copy V1.3 from 2. September 2016

EAC extraction logfile from 14. April 2017, 22:32

Dire Straits / Making Movies

Used drive : PLEXTOR DVDR PX-810SA Adapter: 1 ID: 0

Read mode : Secure
Utilize accurate stream : Yes
Defeat audio cache : Yes
Make use of C2 pointers : No

Read offset correction : 48
Overread into Lead-In and Lead-Out : No
Fill up missing offset samples with silence : Yes
Delete leading and trailing silent blocks : No
Null samples used in CRC calculations : Yes
Used interface : Native Win32 interface for Win NT & 2000

Used output format : User Defined Encoder
Selected bitrate : 1024 kBit/s
Quality : High
Add ID3 tag : No
Command line compressor : C:\Program Files (x86)\Exact Audio Copy\FLAC\FLAC.EXE
Additional command line options : -V -8 %source%

TOC of the extracted CD

Track | Start | Length | Start sector | End sector
———————————————————
1 | 0:00.00 | 8:08.52 | 0 | 36651
2 | 8:08.52 | 5:54.23 | 36652 | 63224
3 | 14:03.00 | 6:18.72 | 63225 | 91646
4 | 20:21.72 | 5:03.30 | 91647 | 114401
5 | 25:25.27 | 4:48.73 | 114402 | 136074
6 | 30:14.25 | 3:19.45 | 136075 | 151044
7 | 33:33.70 | 4:06.02 | 151045 | 169496

Range status and errors

Selected range

Filename D:\SSDdata\Music\1980 – Making Movies (Warner Bros. 3480-2 US-Japan, Flac)\Dire Straits – Making Movies.wav

Peak level 100.0 %
Extraction speed 6.6 X
Range quality 100.0 %
Test CRC 2F1B145F
Copy CRC 2F1B145F
Copy OK

No errors occurred

AccurateRip summary

Track 1 accurately ripped (confidence 25) [0E63E204] (AR v2)
Track 2 accurately ripped (confidence 25) [B0580333] (AR v2)
Track 3 accurately ripped (confidence 25) [68264B8B] (AR v2)
Track 4 accurately ripped (confidence 25) [D8A07417] (AR v2)
Track 5 accurately ripped (confidence 25) [C98BEC92] (AR v2)
Track 6 accurately ripped (confidence 25) [F29B78E2] (AR v2)
Track 7 accurately ripped (confidence 25) [C48DDF08] (AR v2)

All tracks accurately ripped

End of status report

—- CUETools DB Plugin V2.1.6

[CTDB TOCID: DTNE7qvt3q7vysD1tHnWgHTOv5Q-] found
Submit result: DTNE7qvt3q7vysD1tHnWgHTOv5Q- has been confirmed
Track | CTDB Status
1 | (75/76) Accurately ripped
2 | (74/76) Accurately ripped
3 | (75/76) Accurately ripped
4 | (76/76) Accurately ripped
5 | (75/76) Accurately ripped
6 | (75/76) Accurately ripped
7 | (75/76) Accurately ripped

==== Log checksum 72BD4CE76C30F7F6A5148CF39EEE5F2DC4B2E44ACDAB3661A6F55EF6A9F58EB2 ====

REM GENRE Rock
REM DATE 1980
REM DISCID 4F08D307
REM COMMENT “ExactAudioCopy v1.3”
PERFORMER “Dire Straits”
TITLE “Making Movies”
FILE “Dire Straits – Making Movies.flac” WAVE
TRACK 01 AUDIO
TITLE “Tunnel Of Love”
PERFORMER “Dire Straits”
INDEX 01 00:00:00
TRACK 02 AUDIO
TITLE “Romeo And Juliet”
PERFORMER “Dire Straits”
INDEX 00 08:05:37
INDEX 01 08:08:52
TRACK 03 AUDIO
TITLE “Skateaway”
PERFORMER “Dire Straits”
INDEX 00 13:59:30
INDEX 01 14:03:00
TRACK 04 AUDIO
TITLE “Expresso Love”
PERFORMER “Dire Straits”
INDEX 00 20:18:72
INDEX 01 20:21:72
TRACK 05 AUDIO
TITLE “Hand In Hand”
PERFORMER “Dire Straits”
INDEX 00 25:22:27
INDEX 01 25:25:27
TRACK 06 AUDIO
TITLE “Solid Rock”
PERFORMER “Dire Straits”
INDEX 00 30:11:70
INDEX 01 30:14:25
TRACK 07 AUDIO
TITLE “Les Boys”
PERFORMER “Dire Straits”
INDEX 00 33:31:60
INDEX 01 33:33:70


Leave a Reply

Your email address will not be published. Required fields are marked *

This site uses Akismet to reduce spam. Learn how your comment data is processed.