Dire Straits – Making Movies (Reissue)




Artist: Dire Straits
Year: 1980/1984
Genre: Rock
Notes: Discogs
Add. Notes: Reissue
Cover incl.: Yes
Encoder: FLAC
Bitrate: ~800 kBit/s (44.1 kHz/16 Bit/s)
Log & Cue incl.: Yes/Yes
Size: 295,5 MB
Password: “slam” (without ” “)


All Downloads/Hosters are compatible

Download 1
KatFile.com
Turbobit.net
FileFactory.com
Rapidgator.net
Download 2
KatFile.com
Turbobit.net
FileFactory.com
Rapidgator.net

Tracklist:

1 Tunnel Of Love 8:05
2 Romeo And Juliet 5:50
3 Skateaway 6:15
4 Expresso Love 5:00
5 Hand In Hand 4:46
6 Solid Rock 3:17
7 Les Boys 4:06

EAC-Log, CUE-Sheed & NFO:

Click to open spoiler
REM GENRE Rock
REM DATE 1980
REM DISCID 5308D407
REM COMMENT “ExactAudioCopy v1.0b3”
PERFORMER “Dire Straits”
TITLE “Making Movies”
FILE “Dire Straits – Making Movies.flac” WAVE
TRACK 01 AUDIO
TITLE “Tunnel Of Love”
PERFORMER “Dire Straits”
INDEX 00 00:00:00
INDEX 01 00:00:33
TRACK 02 AUDIO
TITLE “Romeo And Juliet”
PERFORMER “Dire Straits”
INDEX 00 08:06:05
INDEX 01 08:09:10
TRACK 03 AUDIO
TITLE “Skateaway”
PERFORMER “Dire Straits”
INDEX 00 13:59:65
INDEX 01 14:03:45
TRACK 04 AUDIO
TITLE “Expresso Love”
PERFORMER “Dire Straits”
INDEX 00 20:19:38
INDEX 01 20:22:30
TRACK 05 AUDIO
TITLE “Hand In Hand”
PERFORMER “Dire Straits”
INDEX 00 25:23:03
INDEX 01 25:25:63
TRACK 06 AUDIO
TITLE “Solid Rock”
PERFORMER “Dire Straits”
INDEX 00 30:12:30
INDEX 01 30:15:00
TRACK 07 AUDIO
TITLE “Les Boys”
PERFORMER “Dire Straits”
INDEX 00 33:32:40
INDEX 01 33:34:33
Exact Audio Copy V1.0 beta 3 from 29. August 2011

EAC extraction logfile from 13. April 2017, 14:04

Dire Straits / Making Movies (800 050-2)

Used drive : HL-DT-STDVDRAM GSA-4163B Adapter: 0 ID: 1

Read mode : Secure
Utilize accurate stream : Yes
Defeat audio cache : Yes
Make use of C2 pointers : No

Read offset correction : 667
Overread into Lead-In and Lead-Out : No
Fill up missing offset samples with silence : Yes
Delete leading and trailing silent blocks : No
Null samples used in CRC calculations : Yes
Used interface : Native Win32 interface for Win NT & 2000

Used output format : User Defined Encoder
Selected bitrate : 768 kBit/s
Quality : High
Add ID3 tag : No
Command line compressor : C:\Program Files\FLAC Frontend\tools\flac.exe
Additional command line options : -V -8 -T “Genre=%genre%” -T “Artist=%artist%” -T “Title=%title%” -T “Album=%albumtitle%” -T “Date=%year%” -T “Tracknumber=%tracknr%” -T “Comment=%comment%” %source%

TOC of the extracted CD

Track | Start | Length | Start sector | End sector
———————————————————
1 | 0:00.33 | 8:08.52 | 33 | 36684
2 | 8:09.10 | 5:54.35 | 36685 | 63269
3 | 14:03.45 | 6:18.60 | 63270 | 91679
4 | 20:22.30 | 5:03.33 | 91680 | 114437
5 | 25:25.63 | 4:49.12 | 114438 | 136124
6 | 30:15.00 | 3:19.33 | 136125 | 151082
7 | 33:34.33 | 4:06.07 | 151083 | 169539

Range status and errors

Selected range

Filename D:\Share\Dire Straits – Making Movies (800 050-2).wav

Peak level 100.0 %
Extraction speed 6.5 X
Range quality 100.0 %
Test CRC 4A1F878C
Copy CRC 4A1F878C
Copy OK

No errors occurred

AccurateRip summary

Track 1 accurately ripped (confidence 200) [085EB8C9] (AR v2)
Track 2 accurately ripped (confidence 200) [D7824660] (AR v2)
Track 3 accurately ripped (confidence 200) [DA249F2D] (AR v2)
Track 4 accurately ripped (confidence 200) [2DF3848B] (AR v2)
Track 5 accurately ripped (confidence 200) [C9024C65] (AR v2)
Track 6 accurately ripped (confidence 200) [C9932E82] (AR v2)
Track 7 accurately ripped (confidence 200) [9E6DC5CC] (AR v2)

All tracks accurately ripped

End of status report

—- CUETools DB Plugin V2.1.3

[CTDB TOCID: hGGFDYH8NYshfAPn.IthJvq.X_A-] found, Submit result: discs with pregaps not supported in this protocol version
[8a205051] (747/897) No match
[e07cfe40] (001/897) No match
[a25a394a] (097/897) Differs in 6569 samples @00:00:39-00:00:40,00:22:34-00:22:36,03:40:49-03:40:51,08:53:67-08:53:68,17:35:29-17:35:31
[49337ade] (001/897) No match
[6d37f243] (001/897) No match
[c188ed63] (001/897) No match
[e85c9218] (001/897) No match
[2eb5ca73] (001/897) No match
[6b07fb38] (001/897) No match
[0eb893e0] (001/897) No match
[b22b5440] (001/897) No match
[2be852a9] (001/897) No match
[a4c4c3d5] (001/897) No match
[1e157230] (001/897) No match
[e45da85c] (001/897) No match
[1586fd7d] (001/897) No match
[71f1351f] (001/897) No match
[2e7e2eb6] (001/897) No match
[58248182] (001/897) No match
[dfa46245] (001/897) No match
[9b6e9d4e] (001/897) No match
[1a661ff3] (001/897) No match
[447788b4] (001/897) No match
[ac5542c5] (001/897) No match
[0ab65943] (001/897) No match
[f907487c] (001/897) No match
[dd489e70] (001/897) No match
[cf7dcf1f] (001/897) No match
[6886d744] (001/897) No match
[7f13158f] (001/897) No match
[dd98647c] (001/897) No match
[ecd6f339] (001/897) No match
[89c7bd67] (001/897) No match
[b509a6eb] (001/897) No match
[c2a2b28a] (001/897) No match
[4e07e2af] (001/897) No match
[f6be6d61] (001/897) No match
[02e0b301] (001/897) No match
[44b217bf] (001/897) No match
[1ff0e879] (001/897) No match
[1157e5cf] (001/897) No match
[b64059e8] (001/897) No match
[be1b33e3] (001/897) No match
[e19fecd5] (001/897) No match
[69d299e0] (001/897) No match
[c68ca618] (001/897) No match
[0916c527] (001/897) No match
[492b205e] (001/897) No match
[c8f265c9] (001/897) No match
[1c382f80] (001/897) No match
[99e8799b] (001/897) No match
[65e977b2] (001/897) No match
[53638567] (001/897) No match
[bc6e93ad] (001/897) No match
[551c2ce2] (001/897) No match
You can use CUETools to repair this rip.

==== Log checksum A3DAAF94F857A52BA270C40C134596A3063CF34F1E94C777D31C76CD34B0DB6E ====


Leave a Reply

Your email address will not be published. Required fields are marked *

Enter the text from the image below
 

This site uses Akismet to reduce spam. Learn how your comment data is processed.