Dire Straits – Love Over Gold




Artist: Dire Straits
Year: 1982/1984
Genre: Rock
Notes: Discogs
Add. Notes:
Cover incl.: Yes
Encoder: FLAC
Bitrate: ~800 kBit/s (44.1 kHz/16 Bit/s)
Log & Cue incl.: Yes
Size: 805,78 MB
Password: “slam” (without ” “)


All Downloads/Hosters are compatible

Download 1
KatFile.com
Turbobit.net
Rapidgator.net
Download 2
KatFile.com
Turbobit.net
Rapidgator.net

Tracklist:

1 - Telegraph Road - 14:15
2 - Private Investigations - 6:45
3 - Industrial Disease - 5:49
4 - Love Over Gold - 6:16
5 - It Never Rains - 7:54

EAC-Log, CUE-Sheed & NFO:

Click to open spoiler
Exact Audio Copy V1.0 beta 3 from 29. August 2011

EAC extraction logfile from 5. May 2013, 22:19

Dire Straits / Love Over Gold

Used drive : PLEXTOR DVDR PX-716A Adapter: 0 ID: 0

Read mode : Secure
Utilize accurate stream : Yes
Defeat audio cache : Yes
Make use of C2 pointers : No

Read offset correction : 30
Overread into Lead-In and Lead-Out : Yes
Fill up missing offset samples with silence : Yes
Delete leading and trailing silent blocks : No
Null samples used in CRC calculations : Yes
Used interface : Native Win32 interface for Win NT & 2000

Used output format : User Defined Encoder
Selected bitrate : 896 kBit/s
Quality : High
Add ID3 tag : No
Command line compressor : C:\Program Files (x86)\FLAC\flac.exe
Additional command line options : -V -8 -T “Date=%year%” -T “Genre=%genre%” %source%

TOC of the extracted CD

Track | Start | Length | Start sector | End sector
———————————————————
1 | 0:00.32 | 14:16.50 | 32 | 64281
2 | 14:17.07 | 6:46.13 | 64282 | 94744
3 | 21:03.20 | 5:50.50 | 94745 | 121044
4 | 26:53.70 | 6:17.25 | 121045 | 149344
5 | 33:11.20 | 7:56.42 | 149345 | 185086

Range status and errors

Selected range

Filename E:\Youtracker\Dire Straits – Collection\6 Studio Albums\1982 Dire Straits – Love Over Gold (Vertigo 800 088-2 blue swirl)\Dire Straits – Love Over Gold.wav

Peak level 100.0 %
Extraction speed 1.5 X
Range quality 100.0 %
Test CRC D8D2D400
Copy CRC D8D2D400
Copy OK

No errors occurred

AccurateRip summary

Track 1 accurately ripped (confidence 45) [97DA17E1] (AR v2)
Track 2 accurately ripped (confidence 46) [97A4714F] (AR v2)
Track 3 accurately ripped (confidence 44) [C0261F97] (AR v2)
Track 4 accurately ripped (confidence 46) [AE8FB86A] (AR v2)
Track 5 accurately ripped (confidence 45) [444B370C] (AR v2)

All tracks accurately ripped

End of status report

—- CUETools DB Plugin V2.1.3

[CTDB TOCID: J9vIeR_YUEBYirWFCNkgPLYUynw-] found, Submit result: discs with pregaps not supported in this protocol version
[eacec169] (243/243) Differs in 1766 samples @00:00:37-00:00:41
You can use CUETools to repair this rip.

==== Log checksum C639D3715F070B8E198A180A14562C1192412BB61C31D851EB14DF01D178F6C5 ====

REM GENRE Rock
REM DATE 1982
REM DISCID 4909A305
REM COMMENT “ExactAudioCopy v1.0b3”
PERFORMER “Dire Straits”
TITLE “Love Over Gold”
FILE “Dire Straits – Love Over Gold.flac” WAVE
TRACK 01 AUDIO
TITLE “Telegraph Road”
PERFORMER “Dire Straits”
INDEX 00 00:00:00
INDEX 01 00:00:32
TRACK 02 AUDIO
TITLE “Private Investigations”
PERFORMER “Dire Straits”
INDEX 00 14:16:20
INDEX 01 14:17:07
TRACK 03 AUDIO
TITLE “Industrial Disease”
PERFORMER “Dire Straits”
INDEX 00 21:02:08
INDEX 01 21:03:20
TRACK 04 AUDIO
TITLE “Love Over Gold”
PERFORMER “Dire Straits”
INDEX 00 26:52:53
INDEX 01 26:53:70
TRACK 05 AUDIO
TITLE “It Never Rains”
PERFORMER “Dire Straits”
INDEX 00 33:10:43
INDEX 01 33:11:20


Leave a Reply

Your email address will not be published. Required fields are marked *

This site uses Akismet to reduce spam. Learn how your comment data is processed.