Dire Straits – Love Over Gold (Limited Remastered Japanese Edition)




Artist: Dire Straits
Year: 1982/2013
Genre: Rock
Notes: Discogs
Add. Notes: Limited Remastered Japanese Edition
Cover incl.: Yes
Encoder: FLAC
Bitrate: ~800 kBit/s (44.1 kHz/16 Bit/s)
Log & Cue incl.: Yes
Size: 431,3 MB
Password: “slam” (without ” “)


All Downloads/Hosters are compatible

Download 1
KatFile.com
Turbobit.net
FileFactory.com
Rapidgator.net
Download 2
KatFile.com
Turbobit.net
FileFactory.com
Rapidgator.net

Tracklist:

1 Telegraph Road 14:18
2 Private Investigations 6:47
3 Industrial Disease 5:50
4 Love Over Gold 6:17
5 It Never Rains 8:00

EAC-Log, CUE-Sheed & NFO:

Click to open spoiler
Exact Audio Copy V1.0 beta 3 from 29. August 2011

EAC extraction logfile from 16. June 2014, 20:33

Dire Straits / Love Over Gold PT-SHM

Used drive : PLEXTOR BD-R PX-B950SA Adapter: 6 ID: 0

Read mode : Secure
Utilize accurate stream : Yes
Defeat audio cache : Yes
Make use of C2 pointers : No

Read offset correction : 6
Overread into Lead-In and Lead-Out : No
Fill up missing offset samples with silence : Yes
Delete leading and trailing silent blocks : No
Null samples used in CRC calculations : Yes
Used interface : Native Win32 interface for Win NT & 2000

Used output format : Internal WAV Routines
Sample format : 44.100 Hz; 16 Bit; Stereo

TOC of the extracted CD

Track | Start | Length | Start sector | End sector
———————————————————
1 | 0:00.00 | 14:25.30 | 0 | 64904
2 | 14:25.30 | 6:48.02 | 64905 | 95506
3 | 21:13.32 | 5:55.48 | 95507 | 122179
4 | 27:09.05 | 6:22.27 | 122180 | 150856
5 | 33:31.32 | 8:01.40 | 150857 | 186971

Range status and errors

Selected range

Filename C:\Users\Meijin\Desktop\Lossless Galaxy ALLexxess\Dire Straits\1982 Love Over Gold (Mini LP PT-SHM Universal Japan 2013)\Dire Straits – Love Over Gold PT-SHM.wav

Peak level 95.7 %
Extraction speed 6.7 X
Range quality 99.9 %
Test CRC 46947F18
Copy CRC 46947F18
Copy OK

No errors occurred

AccurateRip summary

Track 1 accurately ripped (confidence 4) [C5F29039] (AR v2)
Track 2 accurately ripped (confidence 4) [D5F62482] (AR v2)
Track 3 accurately ripped (confidence 4) [9C0F1B27] (AR v2)
Track 4 accurately ripped (confidence 4) [B5059AFD] (AR v2)
Track 5 accurately ripped (confidence 4) [A2D1F5EA] (AR v2)

All tracks accurately ripped

End of status report

==== Log checksum 07645066C0E88992C5566A44F7615983438AB052A550F5B5805FBC743FA395E4 ====

REM GENRE Rock
REM DATE 1982
REM DISCID 3709BC05
REM COMMENT “ExactAudioCopy v1.0b3”
PERFORMER “Dire Straits”
TITLE “Love Over Gold”
FILE “Dire Straits – Love Over Gold.flac” WAVE
TRACK 01 AUDIO
TITLE “Telegraph Road”
PERFORMER “Dire Straits”
INDEX 01 00:00:00
TRACK 02 AUDIO
TITLE “Private Investigations”
PERFORMER “Dire Straits”
INDEX 00 14:18:63
INDEX 01 14:25:30
TRACK 03 AUDIO
TITLE “Industrial Disease”
PERFORMER “Dire Straits”
INDEX 00 21:11:73
INDEX 01 21:13:32
TRACK 04 AUDIO
TITLE “Love Over Gold”
PERFORMER “Dire Straits”
INDEX 00 27:04:36
INDEX 01 27:09:05
TRACK 05 AUDIO
TITLE “It Never Rains”
PERFORMER “Dire Straits”
INDEX 00 33:27:61
INDEX 01 33:31:32


Leave a Reply

Your email address will not be published. Required fields are marked *

This site uses Akismet to reduce spam. Learn how your comment data is processed.