Dire Straits – Love Over Gold




Artist: Dire Straits
Year: 1982/1984
Genre: Rock
Notes: Discogs
Add. Notes:
Cover incl.: Yes
Encoder: FLAC
Bitrate: ~700 kBit/s (44.1 kHz/16 Bit/s)
Log & Cue incl.: Yes/Yes
Size: 273,9 MB
Password: “slam” (without ” “)


All Downloads/Hosters are compatible

Download 1
KatFile.com
Turbobit.net
FileFactory.com
Rapidgator.net
Download 2
KatFile.com
Turbobit.net
FileFactory.com
Rapidgator.net

Tracklist:

1 Telegraph Road 14:15
2 Private Investigations 6:45
3 Industrial Disease 5:49
4 Love Over Gold 6:16
5 It Never Rains 7:54

EAC-Log, CUE-Sheed & NFO:

Click to open spoiler
Exact Audio Copy V1.3 from 2. September 2016

EAC extraction logfile from 14. April 2017, 21:49

Dire Straits / Love Over Gold

Used drive : PLEXTOR DVDR PX-810SA Adapter: 1 ID: 0

Read mode : Secure
Utilize accurate stream : Yes
Defeat audio cache : Yes
Make use of C2 pointers : No

Read offset correction : 48
Overread into Lead-In and Lead-Out : No
Fill up missing offset samples with silence : Yes
Delete leading and trailing silent blocks : No
Null samples used in CRC calculations : Yes
Used interface : Native Win32 interface for Win NT & 2000

Used output format : User Defined Encoder
Selected bitrate : 1024 kBit/s
Quality : High
Add ID3 tag : No
Command line compressor : C:\Program Files (x86)\Exact Audio Copy\FLAC\FLAC.EXE
Additional command line options : -V -8 %source%

TOC of the extracted CD

Track | Start | Length | Start sector | End sector
———————————————————
1 | 0:00.33 | 14:22.47 | 33 | 64729
2 | 14:23.05 | 6:45.73 | 64730 | 95177
3 | 21:09.03 | 5:54.57 | 95178 | 121784
4 | 27:03.60 | 6:21.35 | 121785 | 150394
5 | 33:25.20 | 7:57.60 | 150395 | 186229

Range status and errors

Selected range

Filename D:\SSDdata\Music\1982 – Love Over Gold (Warner Bros. 9 23728-2 US, Flac)\Dire Straits – Love Over Gold.wav

Peak level 100.0 %
Extraction speed 6.5 X
Range quality 99.9 %
Test CRC 82B85EAF
Copy CRC 82B85EAF
Copy OK

No errors occurred

AccurateRip summary

Track 1 accurately ripped (confidence 13) [B8CA2A0A] (AR v2)
Track 2 accurately ripped (confidence 15) [A53BCE7B] (AR v2)
Track 3 accurately ripped (confidence 16) [45EA4A91] (AR v2)
Track 4 accurately ripped (confidence 17) [48BF5882] (AR v2)
Track 5 accurately ripped (confidence 16) [383DA753] (AR v2)

All tracks accurately ripped

End of status report

—- CUETools DB Plugin V2.1.6

[CTDB TOCID: .1zolDm2miyBS04MJS5AT7Z8z9c-] found
Submit result: .1zolDm2miyBS04MJS5AT7Z8z9c- has been confirmed
Track | CTDB Status
1 | (168/177) Accurately ripped
2 | (175/177) Accurately ripped
3 | (175/177) Accurately ripped
4 | (147/177) Accurately ripped
5 | (145/177) Accurately ripped

==== Log checksum 1C20134F08ED430AFB8EC5DF225A72DA7567FA468A3E495949590140B4D67B54 ====

REM GENRE Rock
REM DATE 1982
REM DISCID 3709B305
REM COMMENT “ExactAudioCopy v1.3”
PERFORMER “Dire Straits”
TITLE “Love Over Gold”
FILE “Dire Straits – Love Over Gold.flac” WAVE
TRACK 01 AUDIO
TITLE “Telegraph Road”
PERFORMER “Dire Straits”
INDEX 00 00:00:00
INDEX 01 00:00:33
TRACK 02 AUDIO
TITLE “Private Investigations”
PERFORMER “Dire Straits”
INDEX 00 14:16:35
INDEX 01 14:23:05
TRACK 03 AUDIO
TITLE “Industrial Disease”
PERFORMER “Dire Straits”
INDEX 00 21:08:13
INDEX 01 21:09:03
TRACK 04 AUDIO
TITLE “Love Over Gold”
PERFORMER “Dire Straits”
INDEX 00 26:56:73
INDEX 01 27:03:60
TRACK 05 AUDIO
TITLE “It Never Rains”
PERFORMER “Dire Straits”
INDEX 00 33:18:65
INDEX 01 33:25:20


Leave a Reply

Your email address will not be published. Required fields are marked *

This site uses Akismet to reduce spam. Learn how your comment data is processed.