Dire Straits – Live At The BBC




Artist: Dire Straits
Year: 1995
Genre: Rock
Notes: Discogs
Add. Notes:
Cover incl.: Yes
Encoder: FLAC
Bitrate: ~900 kBit/s (44.1 kHz/16 Bit/s)
Log & Cue incl.: Yes
Size: 620 MB
Password: “slam” (without ” “)


All Downloads/Hosters are compatible

Download 1
KatFile.com
Turbobit.net
FileFactory.com
Rapidgator.net
Download 2
KatFile.com
Turbobit.net
FileFactory.com
Rapidgator.net

Tracklist:

1 - Down To The Waterline - 4:10
2 - Six Blade Knife - 3:47
3 - Water Of Love - 5:29
4 - Wild West End - 5:12
5 - Sultans Of Swing - 6:38
6 - Lions - 5:26
7 - What's The Matter Baby? - 3:19
8 - Tunnel Of Love - 11:56

EAC-Log, CUE-Sheed & NFO:

Click to open spoiler
Exact Audio Copy V1.3 from 2. September 2016

EAC extraction logfile from 16. April 2017, 19:18

Dire Straits / Live at the BBC

Used drive : PLEXTOR DVDR PX-810SA Adapter: 1 ID: 0

Read mode : Secure
Utilize accurate stream : Yes
Defeat audio cache : Yes
Make use of C2 pointers : No

Read offset correction : 48
Overread into Lead-In and Lead-Out : No
Fill up missing offset samples with silence : Yes
Delete leading and trailing silent blocks : No
Null samples used in CRC calculations : Yes
Used interface : Native Win32 interface for Win NT & 2000

Used output format : User Defined Encoder
Selected bitrate : 1024 kBit/s
Quality : High
Add ID3 tag : No
Command line compressor : C:\Program Files (x86)\Exact Audio Copy\FLAC\FLAC.EXE
Additional command line options : -V -8 %source%

TOC of the extracted CD

Track | Start | Length | Start sector | End sector
———————————————————
1 | 0:00.00 | 4:09.35 | 0 | 18709
2 | 4:09.35 | 3:47.40 | 18710 | 35774
3 | 7:57.00 | 5:29.37 | 35775 | 60486
4 | 13:26.37 | 5:12.33 | 60487 | 83919
5 | 18:38.70 | 6:38.67 | 83920 | 113836
6 | 25:17.62 | 5:26.38 | 113837 | 138324
7 | 30:44.25 | 3:20.47 | 138325 | 153371
8 | 34:04.72 | 11:54.23 | 153372 | 206944

Range status and errors

Selected range

Filename D:\SSDdata\Music\1995 – Live at the BBC (Warner Bros.-WEA 9 46053-2 US, matrix X1638 1 46053-2 02 M1S1, Flac)\Dire Straits – Live at the BBC.wav

Peak level 98.8 %
Extraction speed 7.2 X
Range quality 99.9 %
Test CRC 4885310A
Copy CRC 4885310A
Copy OK

No errors occurred

AccurateRip summary

Track 1 accurately ripped (confidence 18) [EB2F643A] (AR v2)
Track 2 accurately ripped (confidence 18) [A299EB96] (AR v2)
Track 3 accurately ripped (confidence 18) [E2EB88F9] (AR v2)
Track 4 accurately ripped (confidence 18) [D37D583E] (AR v2)
Track 5 accurately ripped (confidence 18) [AB900BC2] (AR v2)
Track 6 accurately ripped (confidence 18) [EF25361D] (AR v2)
Track 7 accurately ripped (confidence 18) [34A9D451] (AR v2)
Track 8 accurately ripped (confidence 18) [F68FFB04] (AR v2)

All tracks accurately ripped

End of status report

—- CUETools DB Plugin V2.1.6

[CTDB TOCID: bK.Fq80sAHar5cVFMPOZfVQyij4-] found
Submit result: bK.Fq80sAHar5cVFMPOZfVQyij4- has been confirmed
Track | CTDB Status
1 | (71/71) Accurately ripped
2 | (71/71) Accurately ripped
3 | (71/71) Accurately ripped
4 | (71/71) Accurately ripped
5 | (70/71) Accurately ripped
6 | (70/71) Accurately ripped
7 | (70/71) Accurately ripped
8 | (68/71) Accurately ripped

==== Log checksum 085ABF3D98FB7A38B05E367D1522B77E028049A0BA7BDA622D1355DF746F5C33 ====

REM GENRE Rock
REM DATE 1995
REM DISCID 610AC708
REM COMMENT “ExactAudioCopy v1.3”
PERFORMER “Dire Straits”
TITLE “Live At The BBC”
FILE “Dire Straits – Live At The BBC.flac” WAVE
TRACK 01 AUDIO
TITLE “Down To The Waterline”
PERFORMER “Dire Straits”
INDEX 01 00:00:00
TRACK 02 AUDIO
TITLE “Six Blade Knife”
PERFORMER “Dire Straits”
INDEX 01 04:09:35
TRACK 03 AUDIO
TITLE “Water Of Love”
PERFORMER “Dire Straits”
INDEX 01 07:57:00
TRACK 04 AUDIO
TITLE “Wild West End”
PERFORMER “Dire Straits”
INDEX 01 13:26:37
TRACK 05 AUDIO
TITLE “Sultans Of Swing”
PERFORMER “Dire Straits”
INDEX 01 18:38:70
TRACK 06 AUDIO
TITLE “Lions”
PERFORMER “Dire Straits”
INDEX 01 25:17:62
TRACK 07 AUDIO
TITLE “What’s The Matter Baby?”
PERFORMER “Dire Straits”
INDEX 01 30:44:25
TRACK 08 AUDIO
TITLE “Tunnel Of Love”
PERFORMER “Dire Straits”
INDEX 00 34:04:02
INDEX 01 34:04:72


0

Publication author

3
Comments: 3Publics: 3155Registration: 02-02-2019
Spread the Download

Leave a Reply

Your email address will not be published. Required fields are marked *

Enter the text from the image below
 

This site uses Akismet to reduce spam. Learn how your comment data is processed.