Dire Straits – Live At The BBC




[Total: 0    Average: 0/5]

Artist: Dire Straits
Year: 1995
Genre: Rock
Notes: Discogs
Add. Notes:
Cover incl.: Yes
Encoder: FLAC
Bitrate: ~900 kBit/s (44.1 kHz/16 Bit/s)
Log & Cue incl.: Yes
Size: 340,1 MB
Password: “slam” (without ” “)


All Downloads/Hosters are compatible

Download 1
Share-online.biz
KatFile.com
Rapidgator.net
Download 2
Share-online.biz
KatFile.com
Rapidgator.net

Tracklist:

1  - Down To The Waterline  - 4:10
2  - Six Blade Knife  - 3:47
3  - Water Of Love  - 5:29
4  - Wild West End  - 5:12
5  - Sultans Of Swing  - 6:38
6  - Lions  - 5:26
7  - What's The Matter Baby?  - 3:19
8  - Tunnel Of Love  - 11:56

EAC-Log, CUE-Sheed & NFO:

Click to open spoiler
Exact Audio Copy V1.3 from 2. September 2016

EAC extraction logfile from 18. March 2019, 22:45

Dire Straits / Live at the BBC

Used drive : PIONEER DVD-RW DVR-217F Adapter: 1 ID: 2

Read mode : Secure
Utilize accurate stream : Yes
Defeat audio cache : Yes
Make use of C2 pointers : No

Read offset correction : 96
Overread into Lead-In and Lead-Out : No
Fill up missing offset samples with silence : Yes
Delete leading and trailing silent blocks : No
Null samples used in CRC calculations : Yes
Used interface : Native Win32 interface for Win NT & 2000

Used output format : User Defined Encoder
Selected bitrate : 1024 kBit/s
Quality : High
Add ID3 tag : No
Command line compressor : C:\Program Files\Exact Audio Copy\FLAC\FLAC.EXE
Additional command line options : -V -8 -T “Date=%year%” -T “Genre=%genre%” %source%

TOC of the extracted CD

Track | Start | Length | Start sector | End sector
———————————————————
1 | 0:00.32 | 4:10.08 | 32 | 18789
2 | 4:10.40 | 3:47.40 | 18790 | 35854
3 | 7:58.05 | 5:29.37 | 35855 | 60566
4 | 13:27.42 | 5:12.33 | 60567 | 83999
5 | 18:40.00 | 6:38.67 | 84000 | 113916
6 | 25:18.67 | 5:26.38 | 113917 | 138404
7 | 30:45.30 | 3:20.55 | 138405 | 153459
8 | 34:06.10 | 11:56.22 | 153460 | 207181

Range status and errors

Selected range

Filename C:\RRC’s Rip\Dire Straits – Live at the BBC.wav

Peak level 100.0 %
Extraction speed 6.5 X
Range quality 100.0 %
Test CRC 8D299157
Copy CRC 8D299157
Copy OK

No errors occurred

AccurateRip summary

Track 1 accurately ripped (confidence 155) [494A0DB3] (AR v2)
Track 2 accurately ripped (confidence 157) [278317F4] (AR v2)
Track 3 accurately ripped (confidence 159) [E48965C7] (AR v2)
Track 4 accurately ripped (confidence 156) [29FACE0F] (AR v2)
Track 5 accurately ripped (confidence 158) [D70A1D89] (AR v2)
Track 6 accurately ripped (confidence 153) [48E173D1] (AR v2)
Track 7 accurately ripped (confidence 153) [AD9C4B43] (AR v2)
Track 8 accurately ripped (confidence 150) [A1A23080] (AR v2)

All tracks accurately ripped

End of status report

—- CUETools DB Plugin V2.1.6

[CTDB TOCID: 4LHFeH7Dy3OVxdLbSBnnVyMV1DQ-] found
Submit result: 4LHFeH7Dy3OVxdLbSBnnVyMV1DQ- has been confirmed
Track | CTDB Status
1 | (882/907) Accurately ripped
2 | (887/907) Accurately ripped
3 | (887/907) Accurately ripped
4 | (885/907) Accurately ripped
5 | (880/907) Accurately ripped, or (2/907) differs in 4 samples @04:31:21
6 | (866/907) Accurately ripped, or (9/907) differs in 211 samples @05:03:38-05:03:39
7 | (878/907) Accurately ripped, or (9/907) differs in 48 samples @01:29:34,01:29:50
8 | (864/907) Accurately ripped, or (9/907) differs in 13340 samples @06:43:54-06:43:59,06:43:71-06:44:02,06:44:11-06:44:66

==== Log checksum 1344CEA19AE77A72C02044038F254483DF3F2D011740F8957B27EF89775F6F3E ====

REM GENRE Rock
REM DATE 1995
REM DISCID 580ACA08
REM COMMENT “ExactAudioCopy v1.3”
PERFORMER “Dire Straits”
TITLE “Live At The BBC”
FILE “Dire Straits – Live At The BBC.flac” WAVE
TRACK 01 AUDIO
TITLE “Down To The Waterline”
PERFORMER “Dire Straits”
INDEX 00 00:00:00
INDEX 01 00:00:32
TRACK 02 AUDIO
TITLE “Six Blade Knife”
PERFORMER “Dire Straits”
INDEX 01 04:10:40
TRACK 03 AUDIO
TITLE “Water Of Love”
PERFORMER “Dire Straits”
INDEX 01 07:58:05
TRACK 04 AUDIO
TITLE “Wild West End”
PERFORMER “Dire Straits”
INDEX 01 13:27:42
TRACK 05 AUDIO
TITLE “Sultans Of Swing”
PERFORMER “Dire Straits”
INDEX 01 18:40:00
TRACK 06 AUDIO
TITLE “Lions”
PERFORMER “Dire Straits”
INDEX 01 25:18:67
TRACK 07 AUDIO
TITLE “What’s The Matter Baby?”
PERFORMER “Dire Straits”
INDEX 01 30:45:30
TRACK 08 AUDIO
TITLE “Tunnel Of Love”
PERFORMER “Dire Straits”
INDEX 00 34:05:10
INDEX 01 34:06:10


Spread the Download

Leave a Reply

Your email address will not be published. Required fields are marked *

Enter the text from the image below
 

This site uses Akismet to reduce spam. Learn how your comment data is processed.