Dire Straits – Dire Straits




[Total: 0    Average: 0/5]

Artist: Dire Straits
Year: 1978/1983
Genre: Rock
Notes: Discogs
Add. Notes:
Cover incl.: Yes
Encoder: FLAC
Bitrate: ~800 kBit/s (44.1 kHz/16 Bit/s)
Log & Cue incl.: Yes
Size: 289,48 MB
Password: “slam” (without ” “)


All Downloads/Hosters are compatible

Download 1
Share-online.biz
KatFile.com
Rapidgator.net
NitroFlare.com
Download 2
Share-online.biz
KatFile.com
Rapidgator.net
NitroFlare.com

Tracklist:

1 - Down To The Waterline - 4:00
2 - Water Of Love - 5:26
3 - Setting Me Up - 3:19
4 - Six Blade Knife - 4:12
5 - Southbound Again - 3:00
6 - Sultans Of Swing - 5:48
7 - In The Gallery - 6:16
8 - Wild West End - 4:41
9 - Lions - 5:03

EAC-Log, CUE-Sheed & NFO:

Click to open spoiler
Exact Audio Copy V1.3 from 2. September 2016

EAC extraction logfile from 31. March 2018, 14:21

Dire Straits / Dire Straits

Used drive : PLEXTOR DVDR PX-L890SA Adapter: 1 ID: 0

Read mode : Secure
Utilize accurate stream : Yes
Defeat audio cache : Yes
Make use of C2 pointers : No

Read offset correction : 6
Overread into Lead-In and Lead-Out : No
Fill up missing offset samples with silence : Yes
Delete leading and trailing silent blocks : No
Null samples used in CRC calculations : Yes
Used interface : Native Win32 interface for Win NT & 2000

Used output format : User Defined Encoder
Selected bitrate : 1024 kBit/s
Quality : High
Add ID3 tag : No
Command line compressor : C:\Program Files (x86)\Exact Audio Copy\Flac\flac.exe
Additional command line options : -V -8 -T “Date=%year%” -T “Genre=%genre%” %source%

TOC of the extracted CD

Track | Start | Length | Start sector | End sector
———————————————————
1 | 0:00.33 | 4:00.42 | 33 | 18074
2 | 4:01.00 | 5:24.25 | 18075 | 42399
3 | 9:25.25 | 3:20.30 | 42400 | 57429
4 | 12:45.55 | 4:10.70 | 57430 | 76249
5 | 16:56.50 | 2:59.03 | 76250 | 89677
6 | 19:55.53 | 5:36.15 | 89678 | 114892
7 | 25:31.68 | 6:15.55 | 114893 | 143072
8 | 31:47.48 | 4:44.27 | 143073 | 164399
9 | 36:32.00 | 4:54.28 | 164400 | 186477

Range status and errors

Selected range

Filename H:\AUDIO\MUSIC\1978. Dire Straits – Dire Straits (Warner 3266-2, Gernany, Target CD)\Dire Straits – Dire Straits.wav

Peak level 87.3 %
Extraction speed 7.9 X
Range quality 99.9 %
Test CRC 64FD73DD
Copy CRC 64FD73DD
Copy OK

No errors occurred

AccurateRip summary

Track 1 accurately ripped (confidence 169) [4626FBF0] (AR v2)
Track 2 accurately ripped (confidence 170) [6B30B83A] (AR v2)
Track 3 accurately ripped (confidence 169) [706E8A02] (AR v2)
Track 4 accurately ripped (confidence 169) [659541A8] (AR v2)
Track 5 accurately ripped (confidence 169) [49F7C7E7] (AR v2)
Track 6 accurately ripped (confidence 170) [AB6C80CE] (AR v2)
Track 7 accurately ripped (confidence 168) [EE921B54] (AR v2)
Track 8 accurately ripped (confidence 166) [D68B0173] (AR v2)
Track 9 accurately ripped (confidence 164) [E68D75BD] (AR v2)

All tracks accurately ripped

End of status report

==== Log checksum 825ACC7E5C42F0DBFCFD0E3798357CCC5F8FD2B7B2323946B0C1323131F80091 ====

REM GENRE Rock
REM DATE 1978
REM DISCID 7C09B609
REM COMMENT “ExactAudioCopy v1.3”
PERFORMER “Dire Straits”
TITLE “Dire Straits”
FILE “Dire Straits – Dire Straits.flac” WAVE
TRACK 01 AUDIO
TITLE “Down To The Waterline”
PERFORMER “Dire Straits”
INDEX 00 00:00:00
INDEX 01 00:00:33
TRACK 02 AUDIO
TITLE “Water Of Love”
PERFORMER “Dire Straits”
INDEX 00 03:59:33
INDEX 01 04:01:00
TRACK 03 AUDIO
TITLE “Setting Me Up”
PERFORMER “Dire Straits”
INDEX 00 09:23:53
INDEX 01 09:25:25
TRACK 04 AUDIO
TITLE “Six Blade Knife”
PERFORMER “Dire Straits”
INDEX 00 12:44:60
INDEX 01 12:45:55
TRACK 05 AUDIO
TITLE “Southbound Again”
PERFORMER “Dire Straits”
INDEX 00 16:55:18
INDEX 01 16:56:50
TRACK 06 AUDIO
TITLE “Sultans Of Swing”
PERFORMER “Dire Straits”
INDEX 00 19:53:70
INDEX 01 19:55:53
TRACK 07 AUDIO
TITLE “In The Gallery”
PERFORMER “Dire Straits”
INDEX 00 25:30:28
INDEX 01 25:31:68
TRACK 08 AUDIO
TITLE “Wild West End”
PERFORMER “Dire Straits”
INDEX 00 31:46:18
INDEX 01 31:47:48
TRACK 09 AUDIO
TITLE “Lions”
PERFORMER “Dire Straits”
INDEX 00 36:30:35
INDEX 01 36:32:00


Spread the Download

Leave a Reply

Your email address will not be published. Required fields are marked *

Enter the text from the image below
 

This site uses Akismet to reduce spam. Learn how your comment data is processed.