Dire Straits – Dire Straits (Remastered)




No Cover available

Artist: Dire Straits
Year: 1978/2000
Genre: Rock
Notes: Discogs
Add. Notes: Remastered
Watch Songs on: YouTube
Cover incl.: Yes
Encoder: FLAC
Bitrate: ~900 kBit/s (44.1 kHz/16 Bit/s)
Log & Cue incl.: Yes/Yes
Size: 345,4 MB
Password: “slam” (without ” “)


All Downloads/Hosters are compatible

Download 1
KatFile.com
Turbobit.net
Rapidgator.net
FileFactory.com
Download 2
KatFile.com
Turbobit.net
Rapidgator.net
FileFactory.com

Tracklist:

1 Down To The Waterline 3:55
2 Water Of Love 5:23
3 Setting Me Up 3:18
4 Six Blade Knife 4:10
5 Southbound Again 2:58
6 Sultans Of Swing 5:47
7 In The Gallery 6:16
8 Wild West End 4:42
9 Lions 5:05

EAC-Log, CUE-Sheed & NFO:

Click to open spoiler
Exact Audio Copy V1.3 from 2. September 2016

EAC extraction logfile from 16. April 2017, 23:52

Dire Straits / Dire Straits

Used drive : PLEXTOR DVDR PX-810SA Adapter: 1 ID: 0

Read mode : Secure
Utilize accurate stream : Yes
Defeat audio cache : Yes
Make use of C2 pointers : No

Read offset correction : 48
Overread into Lead-In and Lead-Out : No
Fill up missing offset samples with silence : Yes
Delete leading and trailing silent blocks : No
Null samples used in CRC calculations : Yes
Used interface : Native Win32 interface for Win NT & 2000

Used output format : User Defined Encoder
Selected bitrate : 1024 kBit/s
Quality : High
Add ID3 tag : No
Command line compressor : C:\Program Files (x86)\Exact Audio Copy\FLAC\FLAC.EXE
Additional command line options : -V -8 %source%

TOC of the extracted CD

Track | Start | Length | Start sector | End sector
———————————————————
1 | 0:00.32 | 4:02.45 | 32 | 18226
2 | 4:03.02 | 5:26.48 | 18227 | 42724
3 | 9:29.50 | 3:19.45 | 42725 | 57694
4 | 12:49.20 | 4:13.32 | 57695 | 76701
5 | 17:02.52 | 2:59.38 | 76702 | 90164
6 | 20:02.15 | 5:48.57 | 90165 | 116321
7 | 25:50.72 | 6:16.53 | 116322 | 144574
8 | 32:07.50 | 4:41.45 | 144575 | 165694
9 | 36:49.20 | 5:03.62 | 165695 | 188481

Range status and errors

Selected range

Filename D:\SSDdata\Music\1978 – Dire Straits (2000 Warner Bros. 9 47769-2 US, matrix WEA X13629 1 47769-2 01 M1S9 CI, Flac)\Dire Straits – Dire Straits.wav

Peak level 100.0 %
Extraction speed 1.6 X
Range quality 100.0 %
Test CRC BD14ED0B
Copy CRC BD14ED0B
Copy OK

No errors occurred

AccurateRip summary

Track 1 accurately ripped (confidence 78) [FFFE6DE9] (AR v2)
Track 2 accurately ripped (confidence 77) [70C72AE2] (AR v2)
Track 3 accurately ripped (confidence 78) [07898554] (AR v2)
Track 4 accurately ripped (confidence 77) [EA017857] (AR v2)
Track 5 accurately ripped (confidence 78) [6C88168F] (AR v2)
Track 6 accurately ripped (confidence 76) [DE447CBB] (AR v2)
Track 7 accurately ripped (confidence 76) [228B90B6] (AR v2)
Track 8 accurately ripped (confidence 77) [1BED332B] (AR v2)
Track 9 accurately ripped (confidence 76) [BABD8D4D] (AR v2)

All tracks accurately ripped

End of status report

—- CUETools DB Plugin V2.1.6

[CTDB TOCID: 7tqKQUAxYdX5m8VEyN_EJxjpajo-] found
Submit result: 7tqKQUAxYdX5m8VEyN_EJxjpajo- has been confirmed
Track | CTDB Status
1 | (249/253) Accurately ripped
2 | (248/253) Accurately ripped
3 | (248/253) Accurately ripped
4 | (248/253) Accurately ripped
5 | (249/253) Accurately ripped
6 | (248/253) Accurately ripped
7 | (248/253) Accurately ripped
8 | (248/253) Accurately ripped
9 | (248/253) Accurately ripped

==== Log checksum 9359098DC85F43121C0EF27C43A13F65AD5CCDE61C2B057FDB5D080C9C206430 ====

REM GENRE Rock
REM DATE 1978
REM DISCID 5F09D109
REM COMMENT “ExactAudioCopy v1.3”
PERFORMER “Dire Straits”
TITLE “Dire Straits”
FILE “Dire Straits – Dire Straits.flac” WAVE
TRACK 01 AUDIO
TITLE “Down To The Waterline”
PERFORMER “Dire Straits”
INDEX 00 00:00:00
INDEX 01 00:00:32
TRACK 02 AUDIO
TITLE “Water Of Love”
PERFORMER “Dire Straits”
INDEX 00 04:02:07
INDEX 01 04:03:02
TRACK 03 AUDIO
TITLE “Setting Me Up”
PERFORMER “Dire Straits”
INDEX 00 09:27:57
INDEX 01 09:29:50
TRACK 04 AUDIO
TITLE “Six Blade Knife”
PERFORMER “Dire Straits”
INDEX 00 12:48:12
INDEX 01 12:49:20
TRACK 05 AUDIO
TITLE “Southbound Again”
PERFORMER “Dire Straits”
INDEX 00 17:00:52
INDEX 01 17:02:52
TRACK 06 AUDIO
TITLE “Sultans Of Swing”
PERFORMER “Dire Straits”
INDEX 00 20:01:27
INDEX 01 20:02:15
TRACK 07 AUDIO
TITLE “In The Gallery”
PERFORMER “Dire Straits”
INDEX 00 25:50:05
INDEX 01 25:50:72
TRACK 08 AUDIO
TITLE “Wild West End”
PERFORMER “Dire Straits”
INDEX 00 32:06:05
INDEX 01 32:07:50
TRACK 09 AUDIO
TITLE “Lions”
PERFORMER “Dire Straits”
INDEX 00 36:49:10
INDEX 01 36:49:20


Leave a Reply

Your email address will not be published. Required fields are marked *

Enter the text from the image below
 

This site uses Akismet to reduce spam. Learn how your comment data is processed.