Dire Straits – Dire Straits (Reissue)




Artist: Dire Straits
Year: 1978/1983
Genre: Rock
Notes: Discogs
Add. Notes: Reissue
Cover incl.: Yes
Encoder: FLAC
Bitrate: ~800 kBit/s (44.1 kHz/16 Bit/s)
Log & Cue incl.: Yes
Size: 286,8 MB
Password: “slam” (without ” “)


All Downloads/Hosters are compatible

Download 1
KatFile.com
Turbobit.net
FileFactory.com
Rapidgator.net
Download 2
KatFile.com
Turbobit.net
FileFactory.com
Rapidgator.net

Tracklist:

1 Down To The Waterline 3:55
2 Water Of Love 5:23
3 Setting Me Up 3:18
4 Six Blade Knife 4:10
5 Southbound Again 2:58
6 Sultans Of Swing 5:47
7 In The Gallery 6:16
8 Wild West End 4:42
9 Lions 5:05

EAC-Log, CUE-Sheed & NFO:

Click to open spoiler
Exact Audio Copy V1.0 beta 3 from 29. August 2011

EAC extraction logfile from 13. August 2014, 20:05

Dire Straits / Dire Straits (Warner Bros, Target CD-Japan, 3266-2)

Used drive : PLEXTOR DVDR PX-L890SA Adapter: 1 ID: 0

Read mode : Secure
Utilize accurate stream : Yes
Defeat audio cache : Yes
Make use of C2 pointers : No

Read offset correction : 6
Overread into Lead-In and Lead-Out : No
Fill up missing offset samples with silence : Yes
Delete leading and trailing silent blocks : No
Null samples used in CRC calculations : Yes
Used interface : Native Win32 interface for Win NT & 2000

Used output format : User Defined Encoder
Selected bitrate : 768 kBit/s
Quality : High
Add ID3 tag : No
Command line compressor : G:\Program Files\Exact Audio Copy\FLAC\FLAC.EXE
Additional command line options : -V -8 -T “Date=%year%” -T “Genre=%genre%” %source%

TOC of the extracted CD

Track | Start | Length | Start sector | End sector
———————————————————
1 | 0:00.00 | 3:59.67 | 0 | 17991
2 | 3:59.67 | 5:25.70 | 17992 | 42436
3 | 9:25.62 | 3:19.00 | 42437 | 57361
4 | 12:44.62 | 4:12.50 | 57362 | 76311
5 | 16:57.37 | 3:00.05 | 76312 | 89816
6 | 19:57.42 | 5:48.50 | 89817 | 115966
7 | 25:46.17 | 6:16.38 | 115967 | 144204
8 | 32:02.55 | 4:41.40 | 144205 | 165319
9 | 36:44.20 | 5:02.55 | 165320 | 188024

Range status and errors

Selected range

Filename H:\MUSIC\Dire Straits\1978. Dire Straits – Dire Straits (Warner 3266-2, Japan, Target CD)\Dire Straits – Dire Straits.wav

Peak level 86.6 %
Extraction speed 5.5 X
Range quality 100.0 %
Test CRC 9D4D0A1F
Copy CRC 9D4D0A1F
Copy OK

No errors occurred

AccurateRip summary

Track 1 accurately ripped (confidence 2) [BEC06293] (AR v2)
Track 2 accurately ripped (confidence 2) [64FAA5FF] (AR v2)
Track 3 accurately ripped (confidence 2) [D19532D6] (AR v2)
Track 4 accurately ripped (confidence 2) [61667488] (AR v2)
Track 5 accurately ripped (confidence 2) [9D6E2D17] (AR v2)
Track 6 accurately ripped (confidence 2) [9837927D] (AR v2)
Track 7 accurately ripped (confidence 2) [58B16489] (AR v2)
Track 8 accurately ripped (confidence 2) [229DB2F4] (AR v2)
Track 9 accurately ripped (confidence 2) [D1E6C7F9] (AR v2)

All tracks accurately ripped

End of status report

==== Log checksum F54ED8BD60772F84F916B8C803E41E275AA075346DACBD57B1AE9EDB3485E9D9 ====

REM GENRE Rock
REM DATE 1978
REM DISCID 7909CB09
REM COMMENT “ExactAudioCopy v1.0b3”
PERFORMER “Dire Straits”
TITLE “Dire Straits”
FILE “Dire Straits – Dire Straits.flac” WAVE
TRACK 01 AUDIO
TITLE “Down To The Waterline”
PERFORMER “Dire Straits”
INDEX 01 00:00:00
TRACK 02 AUDIO
TITLE “Water Of Love”
PERFORMER “Dire Straits”
INDEX 00 03:58:60
INDEX 01 03:59:67
TRACK 03 AUDIO
TITLE “Setting Me Up”
PERFORMER “Dire Straits”
INDEX 00 09:23:55
INDEX 01 09:25:62
TRACK 04 AUDIO
TITLE “Six Blade Knife”
PERFORMER “Dire Straits”
INDEX 00 12:43:17
INDEX 01 12:44:62
TRACK 05 AUDIO
TITLE “Southbound Again”
PERFORMER “Dire Straits”
INDEX 00 16:54:17
INDEX 01 16:57:37
TRACK 06 AUDIO
TITLE “Sultans Of Swing”
PERFORMER “Dire Straits”
INDEX 00 19:55:47
INDEX 01 19:57:42
TRACK 07 AUDIO
TITLE “In The Gallery”
PERFORMER “Dire Straits”
INDEX 00 25:44:55
INDEX 01 25:46:17
TRACK 08 AUDIO
TITLE “Wild West End”
PERFORMER “Dire Straits”
INDEX 00 32:01:05
INDEX 01 32:02:55
TRACK 09 AUDIO
TITLE “Lions”
PERFORMER “Dire Straits”
INDEX 00 36:43:52
INDEX 01 36:44:20


Leave a Reply

Your email address will not be published. Required fields are marked *

Enter the text from the image below
 

This site uses Akismet to reduce spam. Learn how your comment data is processed.