Dire Straits – Dire Straits (Limited Remastered Japanese Edition)




No Cover available

Artist: Dire Straits
Year: 1978/2013
Genre: Rock
Notes: Discogs
Add. Notes: Limited Remastered Japanese Edition
Watch Songs on: YouTube
Cover incl.: Yes
Encoder: FLAC
Bitrate: ~800 kBit/s (44.1 kHz/16 Bit/s)
Log & Cue incl.: Yes/Yes
Size: 392,2 MB
Password: “slam” (without ” “)


All Downloads/Hosters are compatible

Download 1
KatFile.com
Turbobit.net
Rapidgator.net
FileFactory.com
Download 2
KatFile.com
Turbobit.net
Rapidgator.net
FileFactory.com

Tracklist:

1 Down To The Waterline 
2 Water Of Love 
3 Setting Me Up 
4 Six Blade Knife 
5 Southbound Again 
6 Sultans Of Swing 
7 In The Gallery 
8 Wild West End 
9 Lions

EAC-Log, CUE-Sheed & NFO:

Click to open spoiler
Exact Audio Copy V1.0 beta 3 from 29. August 2011

EAC extraction logfile from 16. June 2014, 20:55

Dire Straits / Dire Straits PT-SHM

Used drive : PLEXTOR BD-R PX-B950SA Adapter: 6 ID: 0

Read mode : Secure
Utilize accurate stream : Yes
Defeat audio cache : Yes
Make use of C2 pointers : No

Read offset correction : 6
Overread into Lead-In and Lead-Out : No
Fill up missing offset samples with silence : Yes
Delete leading and trailing silent blocks : No
Null samples used in CRC calculations : Yes
Used interface : Native Win32 interface for Win NT & 2000

Used output format : Internal WAV Routines
Sample format : 44.100 Hz; 16 Bit; Stereo

TOC of the extracted CD

Track | Start | Length | Start sector | End sector
———————————————————
1 | 0:00.00 | 4:03.30 | 0 | 18254
2 | 4:03.30 | 5:26.70 | 18255 | 42774
3 | 9:30.25 | 3:19.55 | 42775 | 57754
4 | 12:50.05 | 4:13.52 | 57755 | 76781
5 | 17:03.57 | 2:59.33 | 76782 | 90239
6 | 20:03.15 | 5:49.05 | 90240 | 116419
7 | 25:52.20 | 6:17.02 | 116420 | 144696
8 | 32:09.22 | 4:41.70 | 144697 | 165841
9 | 36:51.17 | 5:06.28 | 165842 | 188819

Range status and errors

Selected range

Filename C:\Users\Meijin\Desktop\Lossless Galaxy ALLexxess\Dire Straits\1978 Dire Straits (Mini LP PT-SHM Universal Japan 2013)\Dire Straits – Dire Straits PT-SHM.wav

Peak level 99.0 %
Extraction speed 6.8 X
Range quality 100.0 %
Test CRC E4BC3C9C
Copy CRC E4BC3C9C
Copy OK

No errors occurred

AccurateRip summary

Track 1 accurately ripped (confidence 7) [6DA03DB7] (AR v2)
Track 2 accurately ripped (confidence 7) [BE6E5CEF] (AR v2)
Track 3 accurately ripped (confidence 7) [055E53B6] (AR v2)
Track 4 accurately ripped (confidence 7) [4F2004C7] (AR v2)
Track 5 accurately ripped (confidence 7) [BAE77C9C] (AR v2)
Track 6 accurately ripped (confidence 7) [54AAA5EC] (AR v2)
Track 7 accurately ripped (confidence 7) [F1DA132C] (AR v2)
Track 8 accurately ripped (confidence 7) [BDC25991] (AR v2)
Track 9 accurately ripped (confidence 7) [BC12FCB9] (AR v2)

All tracks accurately ripped

End of status report

==== Log checksum 1211801496DFB76E329B953CF30ADCCF34DA4641A38FD07051510B85AB4EE868 ====

REM GENRE Rock
REM DATE 1978
REM DISCID 6009D509
REM COMMENT “ExactAudioCopy v1.0b3”
PERFORMER “Dire Straits”
TITLE “Dire Straits”
FILE “Dire Straits – Dire Straits.flac” WAVE
TRACK 01 AUDIO
TITLE “Down To The Waterline”
PERFORMER “Dire Straits”
INDEX 01 00:00:00
TRACK 02 AUDIO
TITLE “Water Of Love”
PERFORMER “Dire Straits”
INDEX 01 04:03:30
TRACK 03 AUDIO
TITLE “Setting Me Up”
PERFORMER “Dire Straits”
INDEX 00 09:28:46
INDEX 01 09:30:25
TRACK 04 AUDIO
TITLE “Six Blade Knife”
PERFORMER “Dire Straits”
INDEX 01 12:50:05
TRACK 05 AUDIO
TITLE “Southbound Again”
PERFORMER “Dire Straits”
INDEX 00 17:02:46
INDEX 01 17:03:57
TRACK 06 AUDIO
TITLE “Sultans Of Swing”
PERFORMER “Dire Straits”
INDEX 01 20:03:15
TRACK 07 AUDIO
TITLE “In The Gallery”
PERFORMER “Dire Straits”
INDEX 01 25:52:20
TRACK 08 AUDIO
TITLE “Wild West End”
PERFORMER “Dire Straits”
INDEX 00 32:07:46
INDEX 01 32:09:22
TRACK 09 AUDIO
TITLE “Lions”
PERFORMER “Dire Straits”
INDEX 01 36:51:17


Leave a Reply

Your email address will not be published. Required fields are marked *

Enter the text from the image below
 

This site uses Akismet to reduce spam. Learn how your comment data is processed.