Dire Straits – Dire Straits (Club Edition)




Artist: Dire Straits
Year: 1978/1998
Genre: Rock
Notes: Discogs
Add. Notes: Club Edition
Cover incl.: Yes
Encoder: FLAC
Bitrate: ~800 kBit/s (44.1 kHz/16 Bit/s)
Log & Cue incl.: Yes
Size: 301 MB
Password: “slam” (without ” “)


All Downloads/Hosters are compatible

Download 1
KatFile.com
Turbobit.net
Rapidgator.net
Turbobit.net
Download 2
KatFile.com
Turbobit.net
Rapidgator.net
Turbobit.net

Tracklist:

1  - Down To The Waterline  - 3:59
2  - Water Of Love  - 5:22
3  - Setting Me Up  - 3:19
4  - Six Blade Knife  - 4:09
5  - Southbound Again  - 2:57
6  - Sultans Of Swing  - 5:34
7  - In The Gallery  - 6:14
8  - Wild West End  - 4:42
9  - Lions  - 4:54

EAC-Log, CUE-Sheed & NFO:

Click to open spoiler
Exact Audio Copy V1.3 from 2. September 2016

EAC extraction logfile from 29. April 2018, 14:32

Dire Straits / Dire Straits

Used drive : TSSTcorpCDDVDW TS-H653B Adapter: 1 ID: 0

Read mode : Secure
Utilize accurate stream : Yes
Defeat audio cache : Yes
Make use of C2 pointers : No

Read offset correction : 6
Overread into Lead-In and Lead-Out : No
Fill up missing offset samples with silence : Yes
Delete leading and trailing silent blocks : No
Null samples used in CRC calculations : Yes
Used interface : Native Win32 interface for Win NT & 2000

Used output format : User Defined Encoder
Selected bitrate : 896 kBit/s
Quality : High
Add ID3 tag : No
Command line compressor : C:\Program Files (x86)\Exact Audio Copy\Flac\flac.exe
Additional command line options : -V -8 -T “Date=%year%” -T “Genre=%genre%” %source%

TOC of the extracted CD

Track | Start | Length | Start sector | End sector
———————————————————
1 | 0:00.00 | 3:59.62 | 0 | 17986
2 | 3:59.62 | 5:24.28 | 17987 | 42314
3 | 9:24.15 | 3:20.30 | 42315 | 57344
4 | 12:44.45 | 4:10.72 | 57345 | 76166
5 | 16:55.42 | 2:58.73 | 76167 | 89589
6 | 19:54.40 | 5:36.17 | 89590 | 114806
7 | 25:30.57 | 6:15.53 | 114807 | 142984
8 | 31:46.35 | 4:44.37 | 142985 | 164321
9 | 36:30.72 | 4:55.25 | 164322 | 186471

Range status and errors

Selected range

Filename G:\MUSIC\To Camerado\DS\78\Dire Straits – Dire Straits.wav

Peak level 87.3 %
Extraction speed 6.8 X
Range quality 100.0 %
Test CRC B2BB8B74
Copy CRC B2BB8B74
Copy OK

No errors occurred

AccurateRip summary

Track 1 accurately ripped (confidence 28) [142FC239] (AR v2)
Track 2 accurately ripped (confidence 28) [A40CF6FF] (AR v2)
Track 3 accurately ripped (confidence 28) [BCD548E2] (AR v2)
Track 4 accurately ripped (confidence 28) [EB2ABD6A] (AR v2)
Track 5 accurately ripped (confidence 28) [399A6EDC] (AR v2)
Track 6 accurately ripped (confidence 28) [9BAF5090] (AR v2)
Track 7 accurately ripped (confidence 28) [B3E46934] (AR v2)
Track 8 accurately ripped (confidence 28) [E285A17E] (AR v2)
Track 9 accurately ripped (confidence 28) [22173596] (AR v2)

All tracks accurately ripped

End of status report

—- CUETools DB Plugin V2.1.6

[CTDB TOCID: KhU2NOPwRup93jGaQh4E9BX_XYA-] found
Submit result: KhU2NOPwRup93jGaQh4E9BX_XYA- has been confirmed
Track | CTDB Status
1 | (71/73) Accurately ripped
2 | (72/73) Accurately ripped
3 | (72/73) Accurately ripped
4 | (73/73) Accurately ripped
5 | (73/73) Accurately ripped
6 | (71/73) Accurately ripped
7 | (72/73) Accurately ripped
8 | (72/73) Accurately ripped
9 | (72/73) Accurately ripped

==== Log checksum E7D21D0286AB951AA631AE1572A952682A546970D4211896441DD1243AAD1296 ====

REM GENRE Rock
REM DATE 1978
REM DISCID 7209B609
REM COMMENT “ExactAudioCopy v1.3”
PERFORMER “Dire Straits”
TITLE “Dire Straits”
FILE “Dire Straits – Dire Straits.flac” WAVE
TRACK 01 AUDIO
TITLE “Down To The Waterline”
PERFORMER “Dire Straits”
INDEX 01 00:00:00
TRACK 02 AUDIO
TITLE “Water Of Love”
PERFORMER “Dire Straits”
INDEX 00 03:57:72
INDEX 01 03:59:62
TRACK 03 AUDIO
TITLE “Setting Me Up”
PERFORMER “Dire Straits”
INDEX 00 09:21:47
INDEX 01 09:24:15
TRACK 04 AUDIO
TITLE “Six Blade Knife”
PERFORMER “Dire Straits”
INDEX 00 12:43:22
INDEX 01 12:44:45
TRACK 05 AUDIO
TITLE “Southbound Again”
PERFORMER “Dire Straits”
INDEX 00 16:53:60
INDEX 01 16:55:42
TRACK 06 AUDIO
TITLE “Sultans Of Swing”
PERFORMER “Dire Straits”
INDEX 00 19:52:22
INDEX 01 19:54:40
TRACK 07 AUDIO
TITLE “In The Gallery”
PERFORMER “Dire Straits”
INDEX 00 25:28:22
INDEX 01 25:30:57
TRACK 08 AUDIO
TITLE “Wild West End”
PERFORMER “Dire Straits”
INDEX 00 31:45:22
INDEX 01 31:46:35
TRACK 09 AUDIO
TITLE “Lions”
PERFORMER “Dire Straits”
INDEX 00 36:29:22
INDEX 01 36:30:72


Leave a Reply

Your email address will not be published. Required fields are marked *

This site uses Akismet to reduce spam. Learn how your comment data is processed.