Dire Straits – Dire Straits




No Cover available

Artist: Dire Straits
Year: 1978/1983
Genre: Rock
Notes: Discogs
Add. Notes:
Watch Songs on: YouTube
Cover incl.: Yes
Encoder: FLAC
Bitrate: ~900 kBit/s (44.1 kHz/16 Bit/s)
Log & Cue incl.: Yes/Yes
Size: 285,08 MB
Password: “slam” (without ” “)


All Downloads/Hosters are compatible

Download 1
KatFile.com
Turbobit.net
Rapidgator.net
FileFactory.com
Download 2
KatFile.com
Turbobit.net
Rapidgator.net
FileFactory.com

Tracklist:

1 Down To The Waterline 3:59
2 Water Of Love 5:22
3 Setting Me Up 3:19
4 Six Blade Knife 4:09
5 Southbound Again 2:57
6 Sultans Of Swing 5:34
7 In The Gallery 6:14
8 Wild West End 4:42
9 Lions 4:54

EAC-Log, CUE-Sheed & NFO:

Click to open spoiler
Exact Audio Copy V1.0 beta 3 from 29. August 2011

EAC extraction logfile from 7. May 2014, 13:58

Dire Straits / Dire straits

Used drive : ASUS SDRW-08D1S-U Adapter: 1 ID: 0

Read mode : Secure
Utilize accurate stream : Yes
Defeat audio cache : Yes
Make use of C2 pointers : No

Read offset correction : 667
Overread into Lead-In and Lead-Out : No
Fill up missing offset samples with silence : Yes
Delete leading and trailing silent blocks : No
Null samples used in CRC calculations : Yes
Used interface : Native Win32 interface for Win NT & 2000

Used output format : User Defined Encoder
Selected bitrate : 128 kBit/s
Quality : High
Add ID3 tag : No
Command line compressor : C:\Program Files (x86)\Exact Audio Copy\Flac\flac.exe
Additional command line options : -V -8 -T “Date=%year%” -T “Genre=%genre%” %source%

TOC of the extracted CD

Track | Start | Length | Start sector | End sector
———————————————————
1 | 0:00.32 | 4:02.33 | 32 | 18214
2 | 4:02.65 | 5:26.47 | 18215 | 42711
3 | 9:29.37 | 3:19.45 | 42712 | 57681
4 | 12:49.07 | 4:13.33 | 57682 | 76689
5 | 17:02.40 | 2:59.37 | 76690 | 90151
6 | 20:02.02 | 5:48.58 | 90152 | 116309
7 | 25:50.60 | 6:16.52 | 116310 | 144561
8 | 32:07.37 | 4:41.53 | 144562 | 165689
9 | 36:49.15 | 5:03.67 | 165690 | 188481

Range status and errors

Selected range

Filename C:\Users\Олег\Desktop\Dire Straits – Dire straits.wav

Peak level 100.0 %
Extraction speed 3.7 X
Range quality 100.0 %
Test CRC AB8ACC29
Copy CRC AB8ACC29
Copy OK

No errors occurred

AccurateRip summary

Track 1 accurately ripped (confidence 200) [F6F5BB0C] (AR v2)
Track 2 accurately ripped (confidence 200) [C90A8444] (AR v2)
Track 3 accurately ripped (confidence 200) [A93DFAD7] (AR v2)
Track 4 accurately ripped (confidence 200) [3254DE10] (AR v2)
Track 5 accurately ripped (confidence 200) [A94A7297] (AR v2)
Track 6 accurately ripped (confidence 200) [99ECD27B] (AR v2)
Track 7 accurately ripped (confidence 200) [BD3B1377] (AR v2)
Track 8 accurately ripped (confidence 200) [F02A597B] (AR v2)
Track 9 accurately ripped (confidence 200) [2C62D19F] (AR v2)

All tracks accurately ripped

End of status report

==== Log checksum 7DBC213C1DA3D5D7319A607110B616EBA3E88AD2883C620A4D616608B1F98472 ====

REM GENRE Rock
REM DATE 1978
REM DISCID 5E09D109
REM COMMENT “ExactAudioCopy v1.0b3”
PERFORMER “Dire Straits”
TITLE “Dire Straits”
FILE “Dire Straits – Dire Straits.flac” WAVE
TRACK 01 AUDIO
TITLE “Down To The Waterline”
PERFORMER “Dire Straits”
INDEX 00 00:00:00
INDEX 01 00:00:32
TRACK 02 AUDIO
TITLE “Water Of Love”
PERFORMER “Dire Straits”
INDEX 00 04:02:25
INDEX 01 04:02:65
TRACK 03 AUDIO
TITLE “Setting Me Up”
PERFORMER “Dire Straits”
INDEX 00 09:28:00
INDEX 01 09:29:37
TRACK 04 AUDIO
TITLE “Six Blade Knife”
PERFORMER “Dire Straits”
INDEX 00 12:48:30
INDEX 01 12:49:07
TRACK 05 AUDIO
TITLE “Southbound Again”
PERFORMER “Dire Straits”
INDEX 00 17:01:07
INDEX 01 17:02:40
TRACK 06 AUDIO
TITLE “Sultans Of Swing”
PERFORMER “Dire Straits”
INDEX 00 20:01:55
INDEX 01 20:02:02
TRACK 07 AUDIO
TITLE “In The Gallery”
PERFORMER “Dire Straits”
INDEX 00 25:50:32
INDEX 01 25:50:60
TRACK 08 AUDIO
TITLE “Wild West End”
PERFORMER “Dire Straits”
INDEX 00 32:06:32
INDEX 01 32:07:37
TRACK 09 AUDIO
TITLE “Lions”
PERFORMER “Dire Straits”
INDEX 01 36:49:15


Leave a Reply

Your email address will not be published. Required fields are marked *

Enter the text from the image below
 

This site uses Akismet to reduce spam. Learn how your comment data is processed.