Dire Straits – Communiqué




No Cover available

Artist: Dire Straits
Year: 1979/1984
Genre: Rock
Notes: Discogs
Add. Notes:
Watch Songs on: YouTube
Cover incl.: Yes
Encoder: FLAC
Bitrate: ~800 kBit/s (44.1 kHz/16 Bit/s)
Log & Cue incl.: Yes/Yes
Size: 351,3 MB
Password: “slam” (without ” “)


All Downloads/Hosters are compatible

Download 1
KatFile.com
Turbobit.net
FileFactory.com
Rapidgator.net
Download 2
KatFile.com
Turbobit.net
FileFactory.com
Rapidgator.net

Tracklist:

1 Once Upon A Time In The West 5:14
2 News 4:11
3 Where Do You Think You're Going? 3:43
4 Communiqué 5:42
5 Lady Writer 3:38
6 Angel Of Mercy 4:29
7 Portobello Belle 4:21
8 Single Handed Sailor 4:42
9 Follow Me Home 5:42

EAC-Log, CUE-Sheed & NFO:

Click to open spoiler
Exact Audio Copy V1.0 beta 3 from 29. August 2011

EAC extraction logfile from 5. May 2013, 21:25

Dire Straits / Communique

Used drive : PLEXTOR DVDR PX-716A Adapter: 0 ID: 0

Read mode : Secure
Utilize accurate stream : Yes
Defeat audio cache : Yes
Make use of C2 pointers : No

Read offset correction : 30
Overread into Lead-In and Lead-Out : Yes
Fill up missing offset samples with silence : Yes
Delete leading and trailing silent blocks : No
Null samples used in CRC calculations : Yes
Used interface : Native Win32 interface for Win NT & 2000

Used output format : User Defined Encoder
Selected bitrate : 896 kBit/s
Quality : High
Add ID3 tag : No
Command line compressor : C:\Program Files (x86)\FLAC\flac.exe
Additional command line options : -V -8 -T “Date=%year%” -T “Genre=%genre%” %source%

TOC of the extracted CD

Track | Start | Length | Start sector | End sector
———————————————————
1 | 0:00.32 | 5:15.40 | 32 | 23696
2 | 5:15.72 | 4:13.70 | 23697 | 42741
3 | 9:29.67 | 3:45.45 | 42742 | 59661
4 | 13:15.37 | 5:43.10 | 59662 | 85396
5 | 18:58.47 | 3:39.58 | 85397 | 101879
6 | 22:38.30 | 4:30.02 | 101880 | 122131
7 | 27:08.32 | 4:25.08 | 122132 | 142014
8 | 31:33.40 | 4:42.42 | 142015 | 163206
9 | 36:16.07 | 5:42.48 | 163207 | 188904

Range status and errors

Selected range

Filename E:\Youtracker\Dire Straits – Collection\6 Studio Albums\1979 Dire Straits – Communique (Vertigo 800 052-2 blue swirl)\Dire Straits – Communique.wav

Peak level 100.0 %
Extraction speed 1.5 X
Range quality 100.0 %
Test CRC FBD5F34B
Copy CRC FBD5F34B
Copy OK

No errors occurred

AccurateRip summary

Track 1 accurately ripped (confidence 17) [1622964F] (AR v2)
Track 2 accurately ripped (confidence 17) [B85D0589] (AR v2)
Track 3 accurately ripped (confidence 17) [F2E3A7D7] (AR v2)
Track 4 accurately ripped (confidence 17) [F08C762D] (AR v2)
Track 5 accurately ripped (confidence 17) [EEF8784F] (AR v2)
Track 6 accurately ripped (confidence 17) [99920341] (AR v2)
Track 7 accurately ripped (confidence 17) [28494852] (AR v2)
Track 8 accurately ripped (confidence 17) [AFCB5B56] (AR v2)
Track 9 accurately ripped (confidence 17) [9C42FAA2] (AR v2)

All tracks accurately ripped

End of status report

—- CUETools DB Plugin V2.1.3

[CTDB TOCID: MMzmUAxT0.bte_43Hsz0mmJ3FQE-] found, Submit result: discs with pregaps not supported in this protocol version
[948e4be1] (113/113) Differs in 4599 samples @00:00:37-00:00:41
You can use CUETools to repair this rip.

==== Log checksum E8305F07D8649CC0F4699AFC0A4D9F3DDA65E8987B014D284E94BE9AD89F7D03 ====

REM GENRE Rock
REM DATE 1979
REM DISCID 7409D609
REM COMMENT “ExactAudioCopy v1.0b3”
PERFORMER “Dire Straits”
TITLE “Communique”
FILE “Dire Straits – Communique.flac” WAVE
TRACK 01 AUDIO
TITLE “Once Upon A Time In The West”
PERFORMER “Dire Straits”
INDEX 00 00:00:00
INDEX 01 00:00:32
TRACK 02 AUDIO
TITLE “News”
PERFORMER “Dire Straits”
INDEX 00 05:15:00
INDEX 01 05:15:72
TRACK 03 AUDIO
TITLE “Where Do You Think You’re Going?”
PERFORMER “Dire Straits”
INDEX 00 09:27:70
INDEX 01 09:29:67
TRACK 04 AUDIO
TITLE “Communique”
PERFORMER “Dire Straits”
INDEX 00 13:13:42
INDEX 01 13:15:37
TRACK 05 AUDIO
TITLE “Lady Writer”
PERFORMER “Dire Straits”
INDEX 00 18:58:27
INDEX 01 18:58:47
TRACK 06 AUDIO
TITLE “Angel Of Mercy”
PERFORMER “Dire Straits”
INDEX 00 22:37:42
INDEX 01 22:38:30
TRACK 07 AUDIO
TITLE “Portobello Belle”
PERFORMER “Dire Straits”
INDEX 00 27:07:32
INDEX 01 27:08:32
TRACK 08 AUDIO
TITLE “Single Handed Sailor”
PERFORMER “Dire Straits”
INDEX 00 31:29:70
INDEX 01 31:33:40
TRACK 09 AUDIO
TITLE “Follow Me Home”
PERFORMER “Dire Straits”
INDEX 00 36:15:57
INDEX 01 36:16:07


Leave a Reply

Your email address will not be published. Required fields are marked *

Enter the text from the image below
 

This site uses Akismet to reduce spam. Learn how your comment data is processed.