Dire Straits – Communiqué (Remastered)




No Cover available

Artist: Dire Straits
Year: 1979/1996
Genre: Rock
Notes: Discogs
Add. Notes: Remastered
Watch Songs on: YouTube
Cover incl.: Yes
Encoder: FLAC
Bitrate: ~800 kBit/s (44.1 kHz/16 Bit/s)
Log & Cue incl.: Yes/Yes
Size: 296,2 MB
Password: “slam” (without ” “)


All Downloads/Hosters are compatible

Download 1
KatFile.com
Turbobit.net
Rapidgator.net
FileFactory.com
Download 2
KatFile.com
Turbobit.net
Rapidgator.net
FileFactory.com

Tracklist:

1 Once Upon A Time In The West 5:14
2 News 4:11
3 Where Do You Think You're Going? 3:43
4 Communiqué 5:42
5 Lady Writer 3:38
6 Angel Of Mercy 4:29
7 Portobello Belle 4:21
8 Single Handed Sailor 4:42
9 Follow Me Home 5:42

EAC-Log, CUE-Sheed & NFO:

Click to open spoiler
Exact Audio Copy V1.3 from 2. September 2016

EAC extraction logfile from 25. July 2018, 11:28

Dire Straits / Communique

Used drive : TSSTcorpCDDVDW TS-L633B Adapter: 1 ID: 0

Read mode : Secure
Utilize accurate stream : Yes
Defeat audio cache : Yes
Make use of C2 pointers : No

Read offset correction : 6
Overread into Lead-In and Lead-Out : No
Fill up missing offset samples with silence : Yes
Delete leading and trailing silent blocks : No
Null samples used in CRC calculations : Yes
Used interface : Native Win32 interface for Win NT & 2000

Used output format : Internal WAV Routines
Sample format : 44.100 Hz; 16 Bit; Stereo

TOC of the extracted CD

Track | Start | Length | Start sector | End sector
———————————————————
1 | 0:00.32 | 5:25.05 | 32 | 24411
2 | 5:25.37 | 4:14.15 | 24412 | 43476
3 | 9:39.52 | 3:49.48 | 43477 | 60699
4 | 13:29.25 | 5:49.52 | 60700 | 86926
5 | 19:19.02 | 3:45.38 | 86927 | 103839
6 | 23:04.40 | 4:36.47 | 103840 | 124586
7 | 27:41.12 | 4:29.58 | 124587 | 144819
8 | 32:10.70 | 4:42.60 | 144820 | 166029
9 | 36:53.55 | 5:50.65 | 166030 | 192344

Range status and errors

Selected range

Filename F:\Alexharvey\Dire Straits – Communique.wav

Peak level 98.8 %
Extraction speed 2.6 X
Range quality 100.0 %
Test CRC CEF8193A
Copy CRC CEF8193A
Copy OK

No errors occurred

AccurateRip summary

Track 1 accurately ripped (confidence 200) [58965C90] (AR v2)
Track 2 accurately ripped (confidence 200) [B1CB6053] (AR v2)
Track 3 accurately ripped (confidence 200) [AB941824] (AR v2)
Track 4 accurately ripped (confidence 200) [3A7E7CA5] (AR v2)
Track 5 accurately ripped (confidence 200) [D5B74E73] (AR v2)
Track 6 accurately ripped (confidence 200) [B16722E8] (AR v2)
Track 7 accurately ripped (confidence 200) [6CBF2EEE] (AR v2)
Track 8 accurately ripped (confidence 200) [0B7A1DF3] (AR v2)
Track 9 accurately ripped (confidence 200) [C3143D19] (AR v2)

All tracks accurately ripped

End of status report

—- CUETools DB Plugin V2.1.6

[CTDB TOCID: wS.e5qhPzmH9SPBUj50Nx3ZtmpM-] found
Submit result: wS.e5qhPzmH9SPBUj50Nx3ZtmpM- has been confirmed
Track | CTDB Status
1 | (1617/1634) Accurately ripped
2 | (1621/1634) Accurately ripped
3 | (1624/1634) Accurately ripped
4 | (1616/1634) Accurately ripped
5 | (1623/1634) Accurately ripped
6 | (1622/1634) Accurately ripped
7 | (1617/1634) Accurately ripped
8 | (1621/1634) Accurately ripped
9 | (1606/1634) Accurately ripped

==== Log checksum 12FDB9355FF65E87E558F3454BBFA06FFFB4949C2FE99E1D98C321D2AD9D2190 ====

REM GENRE Rock
REM DATE 1979
REM DISCID 6A0A0409
REM COMMENT “ExactAudioCopy v1.3”
PERFORMER “Dire Straits”
TITLE “Communique”
FILE “Dire Straits – Communique.flac” WAVE
TRACK 01 AUDIO
TITLE “Once Upon A Time In The West”
PERFORMER “Dire Straits”
INDEX 00 00:00:00
INDEX 01 00:00:32
TRACK 02 AUDIO
TITLE “News”
PERFORMER “Dire Straits”
INDEX 00 05:24:48
INDEX 01 05:25:37
TRACK 03 AUDIO
TITLE “Where Do You Think You’re Going?”
PERFORMER “Dire Straits”
INDEX 00 09:38:68
INDEX 01 09:39:52
TRACK 04 AUDIO
TITLE “Communique”
PERFORMER “Dire Straits”
INDEX 01 13:29:25
TRACK 05 AUDIO
TITLE “Lady Writer”
PERFORMER “Dire Straits”
INDEX 00 19:18:23
INDEX 01 19:19:02
TRACK 06 AUDIO
TITLE “Angel Of Mercy”
PERFORMER “Dire Straits”
INDEX 00 23:03:53
INDEX 01 23:04:40
TRACK 07 AUDIO
TITLE “Portobello Belle”
PERFORMER “Dire Straits”
INDEX 00 27:39:31
INDEX 01 27:41:12
TRACK 08 AUDIO
TITLE “Single Handed Sailor”
PERFORMER “Dire Straits”
INDEX 00 32:10:58
INDEX 01 32:10:70
TRACK 09 AUDIO
TITLE “Follow Me Home”
PERFORMER “Dire Straits”
INDEX 01 36:53:55


Leave a Reply

Your email address will not be published. Required fields are marked *

Enter the text from the image below
 

This site uses Akismet to reduce spam. Learn how your comment data is processed.