Dire Straits – Communique (Limited Remastered Japanese Edition)




Artist: Dire Straits
Year: 1979/2014
Genre: Rock
Notes: Discogs
Add. Notes: Limited Remastered Japanese Edition
Cover incl.: Yes
Encoder: FLAC
Bitrate: ~800 kBit/s (44.1 kHz/16 Bit/s)
Log & Cue incl.: Yes
Size: 447,3 MB
Password: “slam” (without ” “)


All Downloads/Hosters are compatible

Download 1
KatFile.com
Turbobit.net
FileFactory.com
Rapidgator.net
Download 2
KatFile.com
Turbobit.net
FileFactory.com
Rapidgator.net

Tracklist:

1 Once Upon A Time In The West 
2 News 
3 Where Do You Think You're Going? 
4 Communiqué 
5 Lady Writer 
6 Angel Of Mercy 
7 Portobello Belle 
8 Single-Handed Sailor 
9 Follow Me Home

EAC-Log, CUE-Sheed & NFO:

Click to open spoiler
Exact Audio Copy V1.0 beta 3 from 29. August 2011

EAC extraction logfile from 12. October 2014, 11:11

Dire Straits / Communique PT-SHM

Used drive : PLEXTOR BD-R PX-B950SA Adapter: 6 ID: 0

Read mode : Secure
Utilize accurate stream : Yes
Defeat audio cache : Yes
Make use of C2 pointers : No

Read offset correction : 6
Overread into Lead-In and Lead-Out : No
Fill up missing offset samples with silence : Yes
Delete leading and trailing silent blocks : No
Null samples used in CRC calculations : Yes
Used interface : Native Win32 interface for Win NT & 2000

Used output format : Internal WAV Routines
Sample format : 44.100 Hz; 16 Bit; Stereo

TOC of the extracted CD

Track | Start | Length | Start sector | End sector
———————————————————
1 | 0:00.00 | 5:24.32 | 0 | 24331
2 | 5:24.32 | 4:12.08 | 24332 | 43239
3 | 9:36.40 | 3:48.50 | 43240 | 60389
4 | 13:25.15 | 5:48.27 | 60390 | 86516
5 | 19:13.42 | 3:44.58 | 86517 | 103374
6 | 22:58.25 | 4:34.62 | 103375 | 123986
7 | 27:33.12 | 4:29.00 | 123987 | 144161
8 | 32:02.12 | 4:42.05 | 144162 | 165316
9 | 36:44.17 | 5:52.63 | 165317 | 191779

Range status and errors

Selected range

Filename C:\Users\Meijin\Desktop\Lossless Galaxy ALLexxess\Dire Straits\1979 Communique (Mini LP PT-SHM Universal Music Japan 2014)\Dire Straits – Communique PT-SHM.wav

Peak level 87.6 %
Extraction speed 6.7 X
Range quality 99.9 %
Test CRC 162D1B76
Copy CRC 162D1B76
Copy OK

No errors occurred

AccurateRip summary

Track 1 not present in database
Track 2 not present in database
Track 3 not present in database
Track 4 not present in database
Track 5 not present in database
Track 6 not present in database
Track 7 not present in database
Track 8 not present in database
Track 9 not present in database

None of the tracks are present in the AccurateRip database

End of status report

==== Log checksum 6AFCE351CB3EAE5ED3BF4A5F13F12FC7B5425F6A50494492CB06D35D7690637F ====

REM GENRE Rock
REM DATE 1979
REM DISCID 7309FD09
REM COMMENT “ExactAudioCopy v1.0b3”
PERFORMER “Dire Straits”
TITLE “Communique”
FILE “Dire Straits – Communique.flac” WAVE
TRACK 01 AUDIO
TITLE “Once Upon A Time In The West”
PERFORMER “Dire Straits”
INDEX 01 00:00:00
TRACK 02 AUDIO
TITLE “News”
PERFORMER “Dire Straits”
INDEX 01 05:24:32
TRACK 03 AUDIO
TITLE “Where Do You Think You’re Going?”
PERFORMER “Dire Straits”
INDEX 01 09:36:40
TRACK 04 AUDIO
TITLE “Communique”
PERFORMER “Dire Straits”
INDEX 01 13:25:15
TRACK 05 AUDIO
TITLE “Lady Writer”
PERFORMER “Dire Straits”
INDEX 01 19:13:42
TRACK 06 AUDIO
TITLE “Angel Of Mercy”
PERFORMER “Dire Straits”
INDEX 01 22:58:25
TRACK 07 AUDIO
TITLE “Portobello Belle”
PERFORMER “Dire Straits”
INDEX 00 27:31:03
INDEX 01 27:33:12
TRACK 08 AUDIO
TITLE “Single-Handed Sailor”
PERFORMER “Dire Straits”
INDEX 01 32:02:12
TRACK 09 AUDIO
TITLE “Follow Me Home”
PERFORMER “Dire Straits”
INDEX 01 36:44:17


Leave a Reply

Your email address will not be published. Required fields are marked *

This site uses Akismet to reduce spam. Learn how your comment data is processed.