Dire Straits – Brothers In Arms




Artist: Dire Straits
Year: 1985
Genre: Rock
Notes: Discogs
Add. Notes:
Cover incl.: Yes
Encoder: FLAC
Bitrate: ~700 kBit/s (44.1 kHz/16 Bit/s)
Log & Cue incl.: Yes
Size: 383 MB
Password: “slam” (without ” “)


All Downloads/Hosters are compatible

Download 1
KatFile.com
Rapidgator.net
Turbobit.net
FileFactory.com
Download 2
KatFile.com
Rapidgator.net
Turbobit.net
FileFactory.com

Tracklist:

1 - So Far Away - 5:11
2 - Money For Nothing - 8:26
3 - Walk Of Life - 4:12
4 - Your Latest Trick - 6:33
5 - Why Worry - 8:31
6 - Ride Across The River - 6:58
7 - The Man's Too Strong - 4:40
8 - One World - 3:40
9 - Brothers In Arms - 7:00

EAC-Log, CUE-Sheed & NFO:

Click to open spoiler
Exact Audio Copy V1.1 from 23. June 2015

EAC extraction logfile from 16. April 2017, 17:15

Dire Straits / Brothers In Arms

Used drive : TSSTcorpCDDVDW SH-S203B Adapter: 2 ID: 2

Read mode : Secure
Utilize accurate stream : Yes
Defeat audio cache : Yes
Make use of C2 pointers : No

Read offset correction : 6
Overread into Lead-In and Lead-Out : No
Fill up missing offset samples with silence : Yes
Delete leading and trailing silent blocks : No
Null samples used in CRC calculations : Yes
Used interface : Installed external ASPI interface

Used output format : Internal WAV Routines
Sample format : 44.100 Hz; 16 Bit; Stereo

TOC of the extracted CD

Track | Start | Length | Start sector | End sector
———————————————————
1 | 0:00.33 | 5:12.12 | 33 | 23444
2 | 5:12.45 | 8:26.25 | 23445 | 61419
3 | 13:38.70 | 4:12.40 | 61420 | 80359
4 | 17:51.35 | 6:33.63 | 80360 | 109897
5 | 24:25.23 | 8:31.30 | 109898 | 148252
6 | 32:56.53 | 6:58.05 | 148253 | 179607
7 | 39:54.58 | 4:40.12 | 179608 | 200619
8 | 44:34.70 | 3:40.60 | 200620 | 217179
9 | 48:15.55 | 6:57.10 | 217180 | 248464

Range status and errors

Selected range

Filename E:\unclesandy\Dire Straits – Brothers In Arms.wav

Peak level 100.0 %
Extraction speed 6.9 X
Range quality 100.0 %
Test CRC 040A644B
Copy CRC 040A644B
Copy OK

No errors occurred

AccurateRip summary

Track 1 accurately ripped (confidence 200) [A34033F8] (AR v2)
Track 2 accurately ripped (confidence 200) [4A36F030] (AR v2)
Track 3 accurately ripped (confidence 200) [95A0D020] (AR v2)
Track 4 accurately ripped (confidence 200) [401D2C02] (AR v2)
Track 5 accurately ripped (confidence 200) [5E20B3EA] (AR v2)
Track 6 accurately ripped (confidence 200) [9FE43D68] (AR v2)
Track 7 accurately ripped (confidence 200) [EA36DEDF] (AR v2)
Track 8 accurately ripped (confidence 200) [AC440E36] (AR v2)
Track 9 accurately ripped (confidence 200) [B509451D] (AR v2)

All tracks accurately ripped

End of status report

—- CUETools DB Plugin V2.1.6

[CTDB TOCID: 1koFvvTHId9ctbwwSZ6867GpvZs-] found
Submit result: 1koFvvTHId9ctbwwSZ6867GpvZs- has been confirmed
Track | CTDB Status
1 | (436/445) Accurately ripped
2 | (434/445) Accurately ripped
3 | (441/445) Accurately ripped
4 | (435/445) Accurately ripped
5 | (437/445) Accurately ripped
6 | (436/445) Accurately ripped, or (1/445) differs in 2293 samples @06:56:36-06:56:40
7 | (437/445) Accurately ripped
8 | (435/445) Accurately ripped
9 | (428/445) Accurately ripped

==== Log checksum A8B5185954AA0A9961153B501831D8041C5DB9B4284A721C869210C7E18011CF ====

REM GENRE Rock
REM DATE 1985
REM DISCID 8D0CF009
REM COMMENT “ExactAudioCopy v1.1”
CATALOG 0042282449924
PERFORMER “Dire Straits”
TITLE “Brothers In Arms”
FILE “Dire Straits – Brothers In Arms.flac” WAVE
TRACK 01 AUDIO
TITLE “So Far Away”
PERFORMER “Dire Straits”
INDEX 00 00:00:00
INDEX 01 00:00:33
TRACK 02 AUDIO
TITLE “Money for Nothing”
PERFORMER “Dire Straits”
INDEX 00 05:06:13
INDEX 01 05:12:45
TRACK 03 AUDIO
TITLE “Walk of Life”
PERFORMER “Dire Straits”
INDEX 00 13:36:60
INDEX 01 13:38:70
TRACK 04 AUDIO
TITLE “Your Latest Trick”
PERFORMER “Dire Straits”
INDEX 00 17:45:68
INDEX 01 17:51:35
TRACK 05 AUDIO
TITLE “Why Worry”
PERFORMER “Dire Straits”
INDEX 00 24:20:68
INDEX 01 24:25:23
TRACK 06 AUDIO
TITLE “Ride Across the River”
PERFORMER “Dire Straits”
INDEX 00 32:48:68
INDEX 01 32:56:53
TRACK 07 AUDIO
TITLE “The Man’s Too Strong”
PERFORMER “Dire Straits”
INDEX 00 39:53:03
INDEX 01 39:54:58
TRACK 08 AUDIO
TITLE “One World”
PERFORMER “Dire Straits”
INDEX 00 44:32:28
INDEX 01 44:34:70
TRACK 09 AUDIO
TITLE “Brothers in Arms”
PERFORMER “Dire Straits”
INDEX 00 48:10:38
INDEX 01 48:15:55


Leave a Reply

Your email address will not be published. Required fields are marked *

Enter the text from the image below
 

This site uses Akismet to reduce spam. Learn how your comment data is processed.