Dire Straits – Brothers In Arms (Remastered)




No Cover available

Artist: Dire Straits
Year: 1985/2000
Genre: Rock
Notes: Discogs
Add. Notes: Remastered
Watch Songs on: YouTube
Cover incl.: Yes
Encoder: FLAC
Bitrate: ~800 kBit/s (44.1 kHz/16 Bit/s)
Log & Cue incl.: Yes/Yes
Size: 386,6 MB
Password: “slam” (without ” “)


All Downloads/Hosters are compatible

Download 1
KatFile.com
Turbobit.net
FileFactory.com
Rapidgator.net
Download 2
KatFile.com
Turbobit.net
FileFactory.com
Rapidgator.net

Tracklist:

1 So Far Away 5:06
2 Money For Nothing 8:24
3 Walk Of Life 4:09
4 Your Latest Trick 6:31
5 Why Worry 8:25
6 Ride Across The River 6:57
7 The Man's Too Strong 4:36
8 One World 3:36
9 Brothers In Arms 6:56

EAC-Log, CUE-Sheed & NFO:

Click to open spoiler
Exact Audio Copy V1.0 beta 3 from 29. August 2011

EAC extraction logfile from 14. May 2014, 12:13

Dire Straits / Brothers in arms

Used drive : PLEXTOR DVDR PX-891SA Adapter: 0 ID: 2

Read mode : Secure
Utilize accurate stream : Yes
Defeat audio cache : Yes
Make use of C2 pointers : No

Read offset correction : 6
Overread into Lead-In and Lead-Out : No
Fill up missing offset samples with silence : Yes
Delete leading and trailing silent blocks : No
Null samples used in CRC calculations : Yes
Used interface : Installed external ASPI interface

Used output format : User Defined Encoder
Selected bitrate : 320 kBit/s
Quality : High
Add ID3 tag : No
Command line compressor : C:\Program Files\Exact Audio Copy 1.0\Flac\flac.exe
Additional command line options : -V -8 -T “Date=%year%” -T “Genre=%genre%” %source%

TOC of the extracted CD

Track | Start | Length | Start sector | End sector
———————————————————
1 | 0:00.32 | 5:12.10 | 32 | 23441
2 | 5:12.42 | 8:26.30 | 23442 | 61421
3 | 13:38.72 | 4:12.38 | 61422 | 80359
4 | 17:51.35 | 6:33.65 | 80360 | 109899
5 | 24:25.25 | 8:31.22 | 109900 | 148246
6 | 32:56.47 | 6:57.68 | 148247 | 179589
7 | 39:54.40 | 4:40.32 | 179590 | 200621
8 | 44:34.72 | 3:40.58 | 200622 | 217179
9 | 48:15.55 | 7:00.00 | 217180 | 248679

Range status and errors

Selected range

Filename K:\Lossless Temp\Dire Straits\Dire Straits – Brothers In Arms – 1985 (2000 Warner Bros Records, 9 47773-2, USA)\Dire Straits – Brothers in arms.wav

Peak level 100.0 %
Extraction speed 6.7 X
Range quality 100.0 %
Test CRC 57256BE1
Copy CRC 57256BE1
Copy OK

No errors occurred

AccurateRip summary

Track 1 accurately ripped (confidence 86) [2F3217E5] (AR v2)
Track 2 accurately ripped (confidence 88) [176548C6] (AR v2)
Track 3 accurately ripped (confidence 80) [77395C77] (AR v2)
Track 4 accurately ripped (confidence 82) [3F5BF0FA] (AR v2)
Track 5 accurately ripped (confidence 85) [C36E551D] (AR v2)
Track 6 accurately ripped (confidence 87) [D61A0B8E] (AR v2)
Track 7 accurately ripped (confidence 84) [9D711D75] (AR v2)
Track 8 accurately ripped (confidence 86) [8914C7C2] (AR v2)
Track 9 accurately ripped (confidence 85) [1CCD3E69] (AR v2)

All tracks accurately ripped

End of status report

==== Log checksum 4E901E17B20039429C6C85D569004D1E703A22070671210EF12A828822384A89 ====

REM GENRE Rock
REM DATE 1985
REM DISCID 8D0CF309
REM COMMENT “ExactAudioCopy v1.0b3”
CATALOG 0093624777328
PERFORMER “Dire Straits”
TITLE “Brothers In Arms”
FILE “Dire Straits – Brothers In Arms.flac” WAVE
TRACK 01 AUDIO
TITLE “So Far Away”
PERFORMER “Dire Straits”
ISRC GBFO88500673
INDEX 00 00:00:00
INDEX 01 00:00:32
TRACK 02 AUDIO
TITLE “Money For Nothing”
PERFORMER “Dire Straits”
ISRC GBFO88500674
INDEX 00 05:06:32
INDEX 01 05:12:42
TRACK 03 AUDIO
TITLE “Walk Of Life”
PERFORMER “Dire Straits”
ISRC GBFO88500675
INDEX 00 13:37:37
INDEX 01 13:38:72
TRACK 04 AUDIO
TITLE “Your Latest Trick”
PERFORMER “Dire Straits”
ISRC GBFO88500676
INDEX 00 17:47:35
INDEX 01 17:51:35
TRACK 05 AUDIO
TITLE “Why Worry”
PERFORMER “Dire Straits”
ISRC GBFO88500677
INDEX 00 24:20:55
INDEX 01 24:25:25
TRACK 06 AUDIO
TITLE “Ride Across The River”
PERFORMER “Dire Straits”
ISRC GBFO88500678
INDEX 00 32:50:60
INDEX 01 32:56:47
TRACK 07 AUDIO
TITLE “The Man’s Too Strong”
PERFORMER “Dire Straits”
ISRC GBFO88500679
INDEX 01 39:54:40
TRACK 08 AUDIO
TITLE “One World”
PERFORMER “Dire Straits”
ISRC GBFO88500680
INDEX 00 44:33:07
INDEX 01 44:34:72
TRACK 09 AUDIO
TITLE “Brothers In Arms”
PERFORMER “Dire Straits”
ISRC GBFO88500681
INDEX 00 48:11:15
INDEX 01 48:15:55


0

Publication author

offline 7 hours

Chaos

3
Comments: 4Publics: 3424Registration: 02-02-2019
Spread the Download

Leave a Reply

Your email address will not be published. Required fields are marked *

Enter the text from the image below
 

This site uses Akismet to reduce spam. Learn how your comment data is processed.