Dire Straits – Brothers In Arms (Remastered)




No Cover available

Artist: Dire Straits
Year: 1985/2005
Genre: Rock
Notes: Discogs
Add. Notes: Remastered
Watch Songs on: YouTube
Cover incl.: Yes
Encoder: FLAC
Bitrate: ~800 kBit/s (44.1 kHz/16 Bit/s)
Log & Cue incl.: Yes/Yes
Size: 360,9 MB
Password: “slam” (without ” “)


All Downloads/Hosters are compatible

Download 1
KatFile.com
Turbobit.net
Rapidgator.net
FileFactory.com
Download 2
KatFile.com
Turbobit.net
Rapidgator.net
FileFactory.com

Tracklist:

1 So Far Away 5:11
2 Money For Nothing 8:26
3 Walk Of Life 4:12
4 Your Latest Trick 6:33
5 Why Worry 8:31
6 Ride Across The River 6:58
7 The Man's Too Strong 4:40
8 One World 3:40
9 Brothers In Arms 6:58

EAC-Log, CUE-Sheed & NFO:

Click to open spoiler
Exact Audio Copy V1.0 beta 3 from 29. August 2011

EAC extraction logfile from 9. May 2014, 18:00

Dire Straits / Brothers In Arms [20th Anniversary Edition] [9871498]

Used drive : ASUS SDRW-08D1S-U Adapter: 1 ID: 0

Read mode : Secure
Utilize accurate stream : Yes
Defeat audio cache : Yes
Make use of C2 pointers : No

Read offset correction : 667
Overread into Lead-In and Lead-Out : No
Fill up missing offset samples with silence : Yes
Delete leading and trailing silent blocks : No
Null samples used in CRC calculations : Yes
Used interface : Native Win32 interface for Win NT & 2000

Used output format : User Defined Encoder
Selected bitrate : 128 kBit/s
Quality : High
Add ID3 tag : No
Command line compressor : C:\Program Files (x86)\Exact Audio Copy\Flac\flac.exe
Additional command line options : -V -8 -T “Date=%year%” -T “Genre=%genre%” %source%

TOC of the extracted CD

Track | Start | Length | Start sector | End sector
———————————————————
1 | 0:00.00 | 5:12.20 | 0 | 23419
2 | 5:12.20 | 8:25.60 | 23420 | 61354
3 | 13:38.05 | 4:12.37 | 61355 | 80291
4 | 17:50.42 | 6:33.65 | 80292 | 109831
5 | 24:24.32 | 8:30.73 | 109832 | 148154
6 | 32:55.30 | 6:58.00 | 148155 | 179504
7 | 39:53.30 | 4:40.17 | 179505 | 200521
8 | 44:33.47 | 3:40.05 | 200522 | 217026
9 | 48:13.52 | 6:59.58 | 217027 | 248509

Range status and errors

Selected range

Filename C:\Users\Олег\Desktop\Dire Straits – Brothers In Arms [20th Anniversary Edition] [9871498].wav

Peak level 98.8 %
Extraction speed 4.0 X
Range quality 100.0 %
Test CRC 2D662ECC
Copy CRC 2D662ECC
Copy OK

No errors occurred

AccurateRip summary

Track 1 accurately ripped (confidence 200) [53CE6B94] (AR v2)
Track 2 accurately ripped (confidence 200) [6E3F966C] (AR v2)
Track 3 accurately ripped (confidence 200) [695BC006] (AR v2)
Track 4 accurately ripped (confidence 200) [63896B70] (AR v2)
Track 5 accurately ripped (confidence 200) [C859F565] (AR v2)
Track 6 accurately ripped (confidence 200) [FFEF227B] (AR v2)
Track 7 accurately ripped (confidence 200) [41A45F15] (AR v2)
Track 8 accurately ripped (confidence 200) [C85A8DDE] (AR v2)
Track 9 accurately ripped (confidence 200) [77DA5AFE] (AR v2)

All tracks accurately ripped

End of status report

==== Log checksum 8585A2030595B84E448FBB8DB0A8C5F045B45E18D96BA683C1E8554D719B5EA9 ====

REM GENRE Rock
REM DATE 1985
REM DISCID 860CF109
REM COMMENT “ExactAudioCopy v1.0b3”
PERFORMER “Dire Straits”
TITLE “Brothers In Arms”
FILE “Dire Straits – Brothers In Arms.flac” WAVE
TRACK 01 AUDIO
TITLE “So Far Away”
PERFORMER “Dire Straits”
INDEX 01 00:00:00
TRACK 02 AUDIO
TITLE “Money For Nothing”
PERFORMER “Dire Straits”
INDEX 01 05:12:20
TRACK 03 AUDIO
TITLE “Walk Of Life”
PERFORMER “Dire Straits”
INDEX 00 13:36:45
INDEX 01 13:38:05
TRACK 04 AUDIO
TITLE “Your Latest Trick”
PERFORMER “Dire Straits”
INDEX 00 17:46:72
INDEX 01 17:50:42
TRACK 05 AUDIO
TITLE “Why Worry”
PERFORMER “Dire Straits”
INDEX 00 24:19:67
INDEX 01 24:24:32
TRACK 06 AUDIO
TITLE “Ride Across The River”
PERFORMER “Dire Straits”
INDEX 00 32:47:45
INDEX 01 32:55:30
TRACK 07 AUDIO
TITLE “The Man’s Too Strong”
PERFORMER “Dire Straits”
INDEX 01 39:53:30
TRACK 08 AUDIO
TITLE “One World”
PERFORMER “Dire Straits”
INDEX 00 44:31:35
INDEX 01 44:33:47
TRACK 09 AUDIO
TITLE “Brothers In Arms”
PERFORMER “Dire Straits”
INDEX 00 48:10:67
INDEX 01 48:13:52


0

Publication author

offline 9 hours

Chaos

3
Comments: 4Publics: 3424Registration: 02-02-2019
Spread the Download

Leave a Reply

Your email address will not be published. Required fields are marked *

Enter the text from the image below
 

This site uses Akismet to reduce spam. Learn how your comment data is processed.