Dire Straits – Brothers In Arms (Reissue)




[Total: 0    Average: 0/5]

Artist: Dire Straits
Year: 1985
Genre: Rock
Notes: Discogs
Add. Notes: Reissue
Cover incl.: Yes
Encoder: FLAC
Bitrate: ~700 kBit/s (44.1 kHz/16 Bit/s)
Log & Cue incl.: Yes
Size: 328 MB
Password: “slam” (without ” “)


All Downloads/Hosters are compatible

Download 1
Share-online.biz
KatFile.com
Rapidgator.net
Mexa.sh
Download 2
Share-online.biz
KatFile.com
Rapidgator.net
Mexa.sh

Tracklist:

1 - So Far Away - 5:11
2 - Money For Nothing - 8:26
3 - Walk Of Life - 4:12
4 - Your Latest Trick - 6:33
5 - Why Worry - 8:31
6 - Ride Across The River - 6:58
7 - The Man's Too Strong - 4:40
8 - One World - 3:40
9 - Brothers In Arms - 7:00

EAC-Log, CUE-Sheed & NFO:

Click to open spoiler
Exact Audio Copy V1.1 from 23. June 2015

EAC extraction logfile from 12. April 2017, 22:07

Dire Straits / Brothers In Arms (824 499-2)

Used drive : HL-DT-STDVDRAM GE20NU11 Adapter: 1 ID: 0

Read mode : Secure
Utilize accurate stream : Yes
Defeat audio cache : Yes
Make use of C2 pointers : No

Read offset correction : 667
Overread into Lead-In and Lead-Out : No
Fill up missing offset samples with silence : Yes
Delete leading and trailing silent blocks : No
Null samples used in CRC calculations : Yes
Used interface : Native Win32 interface for Win NT & 2000

Used output format : User Defined Encoder
Selected bitrate : 896 kBit/s
Quality : High
Add ID3 tag : No
Command line compressor : C:\Program Files\EAC 3\Exact Audio Copy\Flac\flac.exe
Additional command line options : -V -8 %source%

TOC of the extracted CD

Track | Start | Length | Start sector | End sector
———————————————————
1 | 0:00.32 | 5:12.13 | 32 | 23444
2 | 5:12.45 | 8:26.20 | 23445 | 61414
3 | 13:38.65 | 4:12.37 | 61415 | 80351
4 | 17:51.27 | 6:33.65 | 80352 | 109891
5 | 24:25.17 | 8:31.23 | 109892 | 148239
6 | 32:56.40 | 6:58.05 | 148240 | 179594
7 | 39:54.45 | 4:40.17 | 179595 | 200611
8 | 44:34.62 | 3:40.65 | 200612 | 217176
9 | 48:15.52 | 6:59.03 | 217177 | 248604

Range status and errors

Selected range

Filename Z:\OdW\Dire Straits\1985 Brothers In Arms (824 499-2) [19 ]\Dire Straits – Brothers In Arms (824 499-2).wav

Peak level 79.4 %
Extraction speed 4.4 X
Range quality 100.0 %
Test CRC 1544E4A0
Copy CRC 1544E4A0
Copy OK

No errors occurred

AccurateRip summary

Track 1 accurately ripped (confidence 200) [A7633DD7] (AR v2)
Track 2 accurately ripped (confidence 200) [83F375E8] (AR v2)
Track 3 accurately ripped (confidence 200) [CB61FE73] (AR v2)
Track 4 accurately ripped (confidence 200) [D56CAD93] (AR v2)
Track 5 accurately ripped (confidence 200) [B0E55276] (AR v2)
Track 6 accurately ripped (confidence 200) [9E5EBACC] (AR v2)
Track 7 accurately ripped (confidence 200) [DA2071E2] (AR v2)
Track 8 accurately ripped (confidence 200) [3C120655] (AR v2)
Track 9 accurately ripped (confidence 200) [55426072] (AR v2)

All tracks accurately ripped

End of status report

—- CUETools DB Plugin V2.1.6

[CTDB TOCID: CbJrQU.5WONhWNv6C6RUhiXQ_UQ-] found
Submit result: CbJrQU.5WONhWNv6C6RUhiXQ_UQ- has been confirmed
Track | CTDB Status
1 | (2360/2418) Accurately ripped
2 | (2346/2418) Accurately ripped
3 | (2352/2418) Accurately ripped
4 | (2355/2418) Accurately ripped
5 | (2337/2418) Accurately ripped
6 | (2322/2418) Accurately ripped
7 | (2332/2418) Accurately ripped
8 | (2332/2418) Accurately ripped
9 | (2295/2418) Accurately ripped

==== Log checksum E4118F409C8E4854AED1E3A25AF039FA056AD38ED42F6938DB2CCDC0DD56B69A ====

REM GENRE Rock
REM DATE 1985
REM DISCID 8D0CF209
REM COMMENT “ExactAudioCopy v1.1”
PERFORMER “Dire Straits”
TITLE “Brothers In Arms”
FILE “Dire Straits – Brothers In Arms.flac” WAVE
TRACK 01 AUDIO
TITLE “So Far Away”
PERFORMER “Dire Straits”
INDEX 00 00:00:00
INDEX 01 00:00:32
TRACK 02 AUDIO
TITLE “Money For Nothing”
PERFORMER “Dire Straits”
INDEX 00 05:06:11
INDEX 01 05:12:45
TRACK 03 AUDIO
TITLE “Walk Of Life”
PERFORMER “Dire Straits”
INDEX 00 13:37:36
INDEX 01 13:38:65
TRACK 04 AUDIO
TITLE “Your Latest Trick”
PERFORMER “Dire Straits”
INDEX 00 17:46:16
INDEX 01 17:51:27
TRACK 05 AUDIO
TITLE “Why Worry”
PERFORMER “Dire Straits”
INDEX 00 24:20:58
INDEX 01 24:25:17
TRACK 06 AUDIO
TITLE “Ride Across The River”
PERFORMER “Dire Straits”
INDEX 00 32:49:58
INDEX 01 32:56:40
TRACK 07 AUDIO
TITLE “The Man’s Too Strong”
PERFORMER “Dire Straits”
INDEX 00 39:52:46
INDEX 01 39:54:45
TRACK 08 AUDIO
TITLE “One World”
PERFORMER “Dire Straits”
INDEX 00 44:32:46
INDEX 01 44:34:62
TRACK 09 AUDIO
TITLE “Brothers In Arms”
PERFORMER “Dire Straits”
INDEX 00 48:11:26
INDEX 01 48:15:52


Spread the Download

Leave a Reply

Your email address will not be published. Required fields are marked *

Enter the text from the image below
 

This site uses Akismet to reduce spam. Learn how your comment data is processed.