Dire Straits – Brothers In Arms (Reissue)




No Cover available

Artist: Dire Straits
Year: 1985/1996
Genre: Rock
Notes: Discogs
Add. Notes: Reissue
Cover incl.: Yes
Encoder: FLAC
Bitrate: ~800 kBit/s (44.1 kHz/16 Bit/s)
Log & Cue incl.: Yes/Yes
Size: 330,1 MB
Password: “slam” (without ” “)


All Downloads/Hosters are compatible

Download 1
KatFile.com
Turbobit.net
FileFactory.com
Rapidgator.net
Download 2
KatFile.com
Turbobit.net
FileFactory.com
Rapidgator.net

Tracklist:

1 So Far Away 
2 Money For Nothing 
3 Walk Of Life 
4 Your Latest Trick 
5 Why Worry 
6 Ride Across The River 
7 The Man's Too Strong 
8 One World 
9 Brothers In Arms

EAC-Log, CUE-Sheed & NFO:

Click to open spoiler
Exact Audio Copy V1.0 beta 3 from 29. August 2011

Отчёт EAC об извлечении, выполненном 14. мая 2014, 0:06

Dire Straits / Brothers In Arms

Дисковод: hp CDDVDW TS-L633N Adapter: 0 ID: 0

Режим чтения : Достоверность
Использование точного потока : Да
Отключение кэша аудио : Да
Использование указателей C2 : Нет

Коррекция смещения при чтении : 6
Способность читать области Lead-in и Lead-out : Нет
Заполнение пропущенных сэмплов тишиной : Да
Удаление блоков с тишиной в начале и конце : Нет
При вычислениях CRC использовались нулевые сэмплы : Да
Интерфейс : Встроенный Win32-интерфейс для Win NT/2000

Выходной формат : Пользовательский кодировщик
Выбранный битрейт : 768 kBit/s
Качество : Высокий
Добавление ID3-тега : Нет
Утилита сжатия : C:\Program Files (x86)\Exact Audio Copy\Flac\flac.exe
Дополнительные параметры : -8 -V -T “ARTIST=%artist%” -T “TITLE=%title%” -T “ALBUM=%albumtitle%” -T “DATE=%year%” -T “TRACKNUMBER=%tracknr%” -T “GENRE=%genre%” -T “COMMENT=EAC FLAC -8” %source%

TOC извлечённого CD

Трек | Старт | Длительность | Начальный сектор | Конечный сектор
———————————————————————
1 | 0:00.32 | 5:11.73 | 32 | 23429
2 | 5:12.30 | 8:26.30 | 23430 | 61409
3 | 13:38.60 | 4:12.37 | 61410 | 80346
4 | 17:51.22 | 6:33.68 | 80347 | 109889
5 | 24:25.15 | 8:31.22 | 109890 | 148236
6 | 32:56.37 | 6:58.10 | 148237 | 179596
7 | 39:54.47 | 4:40.10 | 179597 | 200606
8 | 44:34.57 | 3:40.60 | 200607 | 217166
9 | 48:15.42 | 7:00.18 | 217167 | 248684

Характеристики диапазона извлечения и сообщения об ошибках

Выбранный диапазон

Имя файла C:\Users\Admin\Downloads\МУЗЫКА\Dire Straits – Brothers In Arms – 1996 [FLAC]\Dire Straits – Brothers In Arms.wav

Пиковый уровень 100.0 %
Скорость извлечения 3.8 X
Качество диапазона 100.0 %
CRC теста BAA50266
CRC копии BAA50266
Копирование… OK

Ошибок не произошло

AccurateRip: сводка

Трек 1 : извлечено точно (доверие 119) [B36287F7] (AR v2)
Трек 2 : извлечено точно (доверие 117) [75107559] (AR v2)
Трек 3 : извлечено точно (доверие 118) [51E8F97A] (AR v2)
Трек 4 : извлечено точно (доверие 119) [E2277BC4] (AR v2)
Трек 5 : извлечено точно (доверие 118) [BC62E65B] (AR v2)
Трек 6 : извлечено точно (доверие 115) [5C0A682B] (AR v2)
Трек 7 : извлечено точно (доверие 116) [A739B007] (AR v2)
Трек 8 : извлечено точно (доверие 118) [4CE5846F] (AR v2)
Трек 9 : извлечено точно (доверие 117) [07296D17] (AR v2)

Все треки извлечены точно

Конец отчёта

==== Контрольная сумма отчёта D82943F5D60D0E4123FF50FDA328C7EDC95DE7B32E10BF7ADAD8E36A391AB3F0 ====

REM GENRE Rock
REM DATE 1985
REM DISCID 8D0CF309
REM COMMENT “ExactAudioCopy v1.0b3”
PERFORMER “Dire Straits”
TITLE “Brothers In Arms”
FILE “Dire Straits – Brothers In Arms.flac” WAVE
TRACK 01 AUDIO
TITLE “So Far Away”
PERFORMER “Dire Straits”
INDEX 00 00:00:00
INDEX 01 00:00:32
TRACK 02 AUDIO
TITLE “Money For Nothing”
PERFORMER “Dire Straits”
INDEX 00 05:06:60
INDEX 01 05:12:30
TRACK 03 AUDIO
TITLE “Walk Of Life”
PERFORMER “Dire Straits”
INDEX 00 13:37:55
INDEX 01 13:38:60
TRACK 04 AUDIO
TITLE “Your Latest Trick”
PERFORMER “Dire Straits”
INDEX 00 17:47:52
INDEX 01 17:51:22
TRACK 05 AUDIO
TITLE “Why Worry”
PERFORMER “Dire Straits”
INDEX 00 24:20:72
INDEX 01 24:25:15
TRACK 06 AUDIO
TITLE “Ride Across The River”
PERFORMER “Dire Straits”
INDEX 00 32:50:02
INDEX 01 32:56:37
TRACK 07 AUDIO
TITLE “The Man’s Too Strong”
PERFORMER “Dire Straits”
INDEX 01 39:54:47
TRACK 08 AUDIO
TITLE “One World”
PERFORMER “Dire Straits”
INDEX 00 44:33:25
INDEX 01 44:34:57
TRACK 09 AUDIO
TITLE “Brothers In Arms”
PERFORMER “Dire Straits”
INDEX 00 48:11:60
INDEX 01 48:15:42


0

Publication author

offline 8 hours

Chaos

3
Comments: 4Publics: 3424Registration: 02-02-2019
Spread the Download

Leave a Reply

Your email address will not be published. Required fields are marked *

Enter the text from the image below
 

This site uses Akismet to reduce spam. Learn how your comment data is processed.