Dire Straits – Brothers In Arms (Limited Remastered Edition)




No Cover available

Artist: Dire Straits
Year: 1985/2013
Genre: Rock
Notes: Discogs
Add. Notes: Limited Remastered Edition
Watch Songs on: YouTube
Cover incl.: Yes
Encoder: FLAC
Bitrate: ~700 kBit/s (44.1 kHz/16 Bit/s)
Log & Cue incl.: Yes/Yes
Size: 507,2 MB
Password: “slam” (without ” “)


All Downloads/Hosters are compatible

Download 1
KatFile.com
Turbobit.net
Rapidgator.net
FileFactory.com
Download 2
KatFile.com
Turbobit.net
Rapidgator.net
FileFactory.com

Tracklist:

1 So Far Away 5:13
2 Money For Nothing 8:26
3 Walk Of Life 4:13
4 Your Latest Trick 6:34
5 Why Worry 8:30
6 Ride Across The River 6:58
7 The Man's Too Strong 4:40
8 One World 3:41
9 Brothers In Arms 7:01

EAC-Log, CUE-Sheed & NFO:

Click to open spoiler
Exact Audio Copy V1.0 beta 3 from 29. August 2011

EAC extraction logfile from 16. June 2014, 19:35

Dire Straits / Brothers In Arms MFSL

Used drive : PLEXTOR BD-R PX-B950SA Adapter: 6 ID: 0

Read mode : Secure
Utilize accurate stream : Yes
Defeat audio cache : Yes
Make use of C2 pointers : No

Read offset correction : 6
Overread into Lead-In and Lead-Out : No
Fill up missing offset samples with silence : Yes
Delete leading and trailing silent blocks : No
Null samples used in CRC calculations : Yes
Used interface : Native Win32 interface for Win NT & 2000

Used output format : Internal WAV Routines
Sample format : 44.100 Hz; 16 Bit; Stereo

TOC of the extracted CD

Track | Start | Length | Start sector | End sector
———————————————————
1 | 0:00.00 | 5:12.53 | 0 | 23452
2 | 5:12.53 | 8:26.30 | 23453 | 61432
3 | 13:39.08 | 4:12.38 | 61433 | 80370
4 | 17:51.46 | 6:33.64 | 80371 | 109909
5 | 24:25.35 | 8:30.18 | 109910 | 148177
6 | 32:55.53 | 6:58.05 | 148178 | 179532
7 | 39:53.58 | 4:40.18 | 179533 | 200550
8 | 44:34.01 | 3:40.64 | 200551 | 217114
9 | 48:14.65 | 7:01.34 | 217115 | 248723

Range status and errors

Selected range

Filename C:\Users\Meijin\Desktop\Lossless Galaxy ALLexxess\Dire Straits\1984 Brothers In Arms (Hybrid SACD MFSL 2013)\Dire Straits – Brothers In Arms MFSL.wav

Peak level 99.3 %
Extraction speed 3.6 X
Range quality 99.9 %
Test CRC AC281905
Copy CRC AC281905
Copy OK

No errors occurred

AccurateRip summary

Track 1 accurately ripped (confidence 50) [CEE3D8FC] (AR v2)
Track 2 accurately ripped (confidence 50) [4F3EFCA5] (AR v2)
Track 3 accurately ripped (confidence 49) [AE15F086] (AR v2)
Track 4 accurately ripped (confidence 50) [530EC7F1] (AR v2)
Track 5 accurately ripped (confidence 51) [E5031F90] (AR v2)
Track 6 accurately ripped (confidence 51) [EFA47204] (AR v2)
Track 7 accurately ripped (confidence 50) [47546FDD] (AR v2)
Track 8 accurately ripped (confidence 51) [C81A45CE] (AR v2)
Track 9 accurately ripped (confidence 51) [05004812] (AR v2)

All tracks accurately ripped

End of status report

==== Log checksum 325608C23E27A110DFFE6D97C157F84F8672CB060E6BFC08DB238672FF8016AB ====

REM GENRE Rock
REM DATE 1985
REM DISCID 8B0CF409
REM COMMENT “ExactAudioCopy v1.0b3”
PERFORMER “Dire Straits”
TITLE “Brothers In Arms”
FILE “Dire Straits – Brothers In Arms.flac” WAVE
TRACK 01 AUDIO
TITLE “So Far Away”
PERFORMER “Dire Straits”
INDEX 01 00:00:00
TRACK 02 AUDIO
TITLE “Money For Nothing”
PERFORMER “Dire Straits”
INDEX 01 05:12:53
TRACK 03 AUDIO
TITLE “Walk Of Life”
PERFORMER “Dire Straits”
INDEX 01 13:39:08
TRACK 04 AUDIO
TITLE “Your Latest Trick”
PERFORMER “Dire Straits”
INDEX 01 17:51:46
TRACK 05 AUDIO
TITLE “Why Worry”
PERFORMER “Dire Straits”
INDEX 01 24:25:35
TRACK 06 AUDIO
TITLE “Ride Across The River”
PERFORMER “Dire Straits”
INDEX 01 32:55:53
TRACK 07 AUDIO
TITLE “The Man’s Too Strong”
PERFORMER “Dire Straits”
INDEX 01 39:53:58
TRACK 08 AUDIO
TITLE “One World”
PERFORMER “Dire Straits”
INDEX 01 44:34:01
TRACK 09 AUDIO
TITLE “Brothers In Arms”
PERFORMER “Dire Straits”
INDEX 01 48:14:65


0

Publication author

offline 8 hours

Chaos

3
Comments: 4Publics: 3424Registration: 02-02-2019
Spread the Download

Leave a Reply

Your email address will not be published. Required fields are marked *

Enter the text from the image below
 

This site uses Akismet to reduce spam. Learn how your comment data is processed.